Торренты   
 
 


Магазин самоубийств 3D[Вертикальная анаморфная стереопара] / Le magasin des suicides 3D[Half Over/Under] (Патрис Леконт) [2012 г., Anamorph OverUnder]

Рейтинг 3D:
12 голосов
6.6
Рейтинг фильма:
13 голосов
3.2
 
Вы должны быть авторизированы,
чтобы ставить оценки


Магазин самоубийств 3D[Вертикальная анаморфная стереопара] / Le magasin des suicides 3D[Half Over/Under]
Год выпуска: 2012
Страна: Франция, Канада, Бельгия
Жанр: мультфильм, мюзикл, комедия
Продолжительность: 1:19:12
Перевод: Профессиональный (полное дублирование)
Режиссер: Патрис Леконт
В ролях: Бернар Алан, Изабель Спад, Кейси Мотте Кляйн, Изабель Джани, Лоран Жандрон, Пьер-Франсуа Мартен-Лаваль, Эрик Метайе, Жак Мату, Юрбен Канселье, Паскаль Парментье
Описание: В неком городе, где жизнь невероятно уныла и невыносима, на протяжении многих поколений процветает магазин, который торгует всем необходимым для совершения самоубийств. Всё идёт замечательно до тех пор, пока в семье владельца этого магазина не рождается Алан — жизнелюбивый и весёлый малыш.

Доп. информация: Проверено на встроенном плейере LG47LW575S
Формат 3D: Anamorph OverUnder
Видео: 1920x1080p (16:9), 23,976 fps, AVC MPEG-4 (x264), High@L4.1, ~7263b/s~0.146bit/pixel
Качество:BDrip
Аудио#1Русский: AC3, 48.0kHz, 6ch ~640 kbps avg Профессиональный полное дублирование
Аудио#2Французский:AC3, 48.0kHz, 6ch ~640 kbps avg Оригинал

Скриншоты

Media Info

Общее
Уникальный идентификатор : 184647052350271262165761725057854865584 (0x8AE9BA8DD09859DD9691CB61DC2800B0)
Полное имя : D:\Films\Le_magasin_d_suicides_3D.HOU(by_Palych).mkv
Формат : Matroska
Версия формата : Version 2
Размер файла : 4,82 Гбайт
Продолжительность : 1 ч. 19 м.
Общий поток : 8717 Кбит/сек
Дата кодирования : UTC 2013-04-17 13:25:27
Программа кодирования : mkvmerge v3.4.0 ('Rapunzel') сборка от May 15 2010 09:38:20
Библиотека кодирования : libebml v0.8.0 + libmatroska v0.9.0
Видео
Идентификатор : 1
Формат : AVC
Формат/Информация : Advanced Video Codec
Профиль формата : High@L4.1
Параметр CABAC формата : Да
Параметр ReFrames формата : 4 кадра
Идентификатор кодека : V_MPEG4/ISO/AVC
Продолжительность : 1 ч. 19 м.
Битрейт : 7263 Кбит/сек
Ширина : 1920 пикселей
Высота : 1080 пикселей
Соотношение сторон : 16:9
Частота кадров : 23,976 кадра/сек
Цветовое пространство : YUV
Субдискретизация насыщенности : 4:2:0
Битовая глубина : 8 бит
Тип развёртки : Прогрессивная
Бит/(Пиксели*Кадры) : 0.146
Размер потока : 4,02 Гбайт (83%)
Заголовок : BDrip by Palych
Библиотека кодирования : x264 core 128 r2216 198a7ea
Настройки программы : cabac=1 / ref=4 / deblock=1:-3:-3 / analyse=0x3:0x113 / me=umh / subme=9 / psy=1 / psy_rd=1.00:0.15 / mixed_ref=1 / me_range=16 / chroma_me=1 / trellis=2 / 8x8dct=1 / cqm=0 / deadzone=21,11 / fast_pskip=1 / chroma_qp_offset=-3 / threads=9 / lookahead_threads=1 / sliced_threads=0 / nr=0 / decimate=1 / interlaced=0 / bluray_compat=0 / constrained_intra=0 / bframes=6 / b_pyramid=2 / b_adapt=2 / b_bias=0 / direct=3 / weightb=1 / open_gop=0 / weightp=2 / keyint=250 / keyint_min=23 / scenecut=40 / intra_refresh=0 / rc_lookahead=60 / rc=crf / mbtree=1 / crf=18.0 / qcomp=0.70 / qpmin=0 / qpmax=69 / qpstep=4 / vbv_maxrate=40000 / vbv_bufsize=40000 / crf_max=0.0 / nal_hrd=none / frame-packing=4 / ip_ratio=1.40 / aq=1:0.80
Язык : English
Default : Нет
Forced : Нет
Аудио #1
Идентификатор : 2
Формат : AC-3
Формат/Информация : Audio Coding 3
Расширение режима : CM (complete main)
Идентификатор кодека : A_AC3
Продолжительность : 1 ч. 19 м.
Вид битрейта : Постоянный
Битрейт : 640 Кбит/сек
Каналы : 6 каналов
Расположение каналов : Front: L C R, Side: L R, LFE
Частота : 48,0 КГц
Битовая глубина : 16 бит
Метод сжатия : С потерями
Размер потока : 363 Мбайт (7%)
Default : Да
Forced : Нет
Аудио #2
Идентификатор : 3
Формат : AC-3
Формат/Информация : Audio Coding 3
Расширение режима : CM (complete main)
Идентификатор кодека : A_AC3
Продолжительность : 1 ч. 19 м.
Вид битрейта : Постоянный
Битрейт : 640 Кбит/сек
Каналы : 6 каналов
Расположение каналов : Front: L C R, Side: L R, LFE
Частота : 48,0 КГц
Битовая глубина : 16 бит
Метод сжатия : С потерями
Размер потока : 363 Мбайт (7%)
Default : Нет
Forced : Нет
Остальные раздачи этого фильма (2)
Благодарности релизеру (32)

Торрент:

Статус:

Размер:

Зарегистрирован   [ 2013-04-17 19:57 ]

проверено

4.82 GB

 
 Мнение о фильме (19)





Скоро мультфильмы будут снимать про изнасилования. Идиоты.
 

Sane4ka1980 такие мульты уже давно есть !!! :)
 
ВАСИЛИЙ СОЛОМОН Профиль 18-Апр-2013 13:41

мультфильм для взрослых и по книге .в принципе неплохо особенно вставка у психотерапевта жалко нет субтитров песен
 
евгения мурашко Профиль 18-Апр-2013 14:55

так я не понял, мультфильм хороший или нет? все о чём то левом но о самом мультфильме ничего....
 

Если вам нравятся мультики Тима Бертона (такие как «Труп невесты», «Кошмар перед рождеством»), если вам нравятся черные мультики на тему смерти, суицида, депрессий и прочих радостей жизни, то вам определенно понравится этот мультфильм.
 

если вам нравятся черные мультики на тему смерти, суицида, депрессий и прочих радостей жизни, то вам определенно понравится этот мультфильм.
Судя по отрывкам, этот мульт как раз весьма жизнеутверждающий!
 

кто любит мюзиклы можете посмотреть
 

Без возрастного рейтинга, значит 0+ ?
 

Возрастной рейтинг 12+
 

Nu logichno. 13+ uzhe porno 3 D ;)
 

Мульт любопытный, но ситуяция - отцтой:
Песни не переводятся даже субтитрами. Они занимают достаточно времени - это же мюзикл. Пропадает очень много смысла. Не все по лягушачьи разумеют.
Не буду благодарить раздающего!
 
Беня Пенкин Профиль 02-Май-2013 01:20

Sane4ka1980,
Поддерживаю 100%!!! Одно название чего стоит!
Кретины - чему наших детей можно научить на таких мультах!?
 

Мультфильм просто дрянь. Раздающим всё равно спасибо за труды.
 

нормальный мульт !
 

мультфильм даже не для детей +12, а только для взрослых, т.к. там прямо пропаганда суицида!!! а вот взрослым посмотреть можно!!! спасибо раздающим!!!
 

Своеобразный мультик. 3Д неплохое.
 

Отличный мульт, смотрел когда то его в 2D с субтитрами!!!!
 

про такой сюжет смотреть не буду
 

Не удивительно, что в Европе такие проблемы... с мозгами. Надеюсь, никто сюжет "шедевром" не назовёт?