Торренты   
 
 

 

Пapк Юpcкoгo пepиoдa 3Д / Jurаssiс Раrk 3D [1993 (2013), BDrip, half1080p, Anamorph SideBySyde]

Рейтинг 3D:
191 голосов
7.9
Рейтинг фильма:
185 голосов
8.2
 
Вы должны быть авторизированы,
чтобы ставить оценки


Пapк Юpcкoгo пepиoдa 3Д / Jurаssiс Раrk 3D
Год выпуска: 1993 (2013 - ре-релиз в 3Д)
Страна: США (Universal Pictures, Amblin Entertainment)
Жанр: Приключения, Фантастика, Семейный
Продолжительность: 02:06:49
Перевод: Профессиональные многоголосые закадровые Русский и Украинский
Режиссер: Cтивeн Cпилбepг / Stеvеn Sрiеlbеrg
В ролях:
Dr. Alan Grant - Сэм Нил
Dr. Ellie Sattler - Лора Дерн
Dr. Ian Malcolm - Джефф Голдблюм
John Hammond - Ричард Аттенборо
Tim Murphy - Джозеф Маццелло
Lex Murphy - Ариана Ричардс
Dennis Nedry - Уэйн Найт
Robert Muldoon - Боб Пек
Donald Gennaro - Мартин Ферреро
Ray Arnold - Сэмюэл Л. Джексон
Henry Wu - Б.Д. Вонг
Описание: Экспансивный богач и профессор уговаривает пару ученых-палеонтологов приехать на остров у побережья Коста-Рики, где он устроил реликтовый парк. В парке этом водятся древние зверушки — динозавры, которые по его идее и должны стать гвоздем программы нового аттракциона.
До открытия остается несколько дней, а один из работников, пытаясь продать «рассаду» налево, нарушает систему охраны, что в комплексе с грозовым ливнем приводит к тому, что доисторические животные оказываются на воле, где действуют в соответствии со своими инстинктами.
Формат 3D: Anamorph SideBySide
Порядок ракурсов: Параллельная пара
Видео: AVC / 23,976 fps / 1920х1080p / 8 179 Kbps
Аудио 1: Русский / AC3 / 5.1 / 448 kbps / 48 kHz (многоголосый, закадровый, Пифагор)
Аудио 2: Русский / AC3 / 5.1 / 448 kbps / 48 kHz (многоголосый, закадровый, Киномания)
Аудио 3: Украинский / AC3 / 5.1 / 192 kbps / 48 kHz / (многоголосый, закадровый, 1+1)
Аудио 4: Русский / AC3 / 5.1 / 384 kbps / 48 kHz / (одноголосый, закадровый, Гаврилов)
Аудио 5: Русский / AC3 / 5.1 / 448 kbps / 48 kHz (одноголосый, закадровый, Живов)
Аудио 6: Русский / AC3 / 2.0 / 384 kbps / 48 kHz / (одноголосый, закадровый, Володарский)
Аудио 7: Английский / AC3 / 2.0 / 640 kbps / 48 kHz /
Субтитры: Русские полные

MediaInfo

General
Unique ID : 241166713484435742469397820111328447657 (0xB56F04FE894013A59296CCD4F5310CA9)
Complete name : Jurаssiс Раrk [Пapк Юpcкoгo пepиoдa] (1993,2013) MVO hSbS 1080p by Alexman©.mkv
Format : Matroska
Format version : Version 4 / Version 2
File size : 10.1 GiB
Duration : 2h 6mn
Overall bit rate : 11.3 Mbps
Encoded date : UTC 2013-04-17 20:18:44
Writing application : mkvmerge v6.1.0 ('Old Devil') built on Mar 2 2013 14:32:37
Writing library : libebml v1.3.0 + libmatroska v1.4.0
Video
ID : 1
Format : AVC
Format/Info : Advanced Video Codec
Format profile : High@L4.1
Format settings, CABAC : Yes
Format settings, ReFrames : 4 frames
Codec ID : V_MPEG4/ISO/AVC
Duration : 2h 6mn
Bit rate : 8 179 Kbps
Width : 1 920 pixels
Height : 1 080 pixels
Display aspect ratio : 16:9
Frame rate mode : Constant
Frame rate : 23.976 fps
Color space : YUV
Chroma subsampling : 4:2:0
Bit depth : 8 bits
Scan type : Progressive
Bits/(Pixel*Frame) : 0.165
Stream size : 7.25 GiB (72%)
Writing library : x264 core 129 r2245 bc13772
Encoding settings : cabac=1 / ref=4 / deblock=1:-3:-3 / analyse=0x3:0x113 / me=umh / subme=9 / psy=1 / psy_rd=1.00:0.15 / mixed_ref=1 / me_range=32 / chroma_me=1 / trellis=2 / 8x8dct=1 / cqm=0 / deadzone=21,11 / fast_pskip=1 / chroma_qp_offset=-3 / threads=6 / lookahead_threads=1 / sliced_threads=0 / nr=0 / decimate=1 / interlaced=0 / bluray_compat=0 / constrained_intra=0 / bframes=4 / b_pyramid=2 / b_adapt=2 / b_bias=0 / direct=3 / weightb=1 / open_gop=0 / weightp=2 / keyint=250 / keyint_min=23 / scenecut=40 / intra_refresh=0 / rc_lookahead=60 / rc=crf / mbtree=1 / crf=18.0 / qcomp=0.60 / qpmin=0 / qpmax=69 / qpstep=4 / vbv_maxrate=40000 / vbv_bufsize=40000 / crf_max=0.0 / nal_hrd=none / ip_ratio=1.40 / aq=1:0.70
Language : English
Default : Yes
Forced : No
Audio #1
ID : 2
Format : AC-3
Format/Info : Audio Coding 3
Mode extension : CM (complete main)
Format settings, Endianness : Big
Codec ID : A_AC3
Duration : 2h 6mn
Bit rate mode : Constant
Bit rate : 448 Kbps
Channel(s) : 6 channels
Channel positions : Front: L C R, Side: L R, LFE
Sampling rate : 48.0 KHz
Bit depth : 16 bits
Compression mode : Lossy
Delay relative to video : 2s 335ms
Stream size : 406 MiB (4%)
Title : многоголосый, закадровый, Пифагор
Language : Russian
Default : Yes
Forced : Yes
Audio #2
ID : 3
Format : AC-3
Format/Info : Audio Coding 3
Mode extension : CM (complete main)
Format settings, Endianness : Big
Codec ID : A_AC3
Duration : 2h 6mn
Bit rate mode : Constant
Bit rate : 448 Kbps
Channel(s) : 6 channels
Channel positions : Front: L C R, Side: L R, LFE
Sampling rate : 48.0 KHz
Bit depth : 16 bits
Compression mode : Lossy
Delay relative to video : 2s 335ms
Stream size : 406 MiB (4%)
Title : многоголосый, закадровый, Киномания
Language : Russian
Default : No
Forced : No
Audio #3
ID : 4
Format : AC-3
Format/Info : Audio Coding 3
Mode extension : CM (complete main)
Format settings, Endianness : Big
Codec ID : A_AC3
Duration : 2h 6mn
Bit rate mode : Constant
Bit rate : 192 Kbps
Channel(s) : 6 channels
Channel positions : Front: L C R, Side: L R, LFE
Sampling rate : 48.0 KHz
Bit depth : 16 bits
Compression mode : Lossy
Delay relative to video : 2s 335ms
Stream size : 174 MiB (2%)
Title : многоголосый, закадровый, 1+1
Language : Ukrainian
Default : No
Forced : No
Audio #4
ID : 5
Format : AC-3
Format/Info : Audio Coding 3
Mode extension : CM (complete main)
Format settings, Endianness : Big
Codec ID : A_AC3
Duration : 2h 6mn
Bit rate mode : Constant
Bit rate : 384 Kbps
Channel(s) : 6 channels
Channel positions : Front: L C R, Side: L R, LFE
Sampling rate : 48.0 KHz
Bit depth : 16 bits
Compression mode : Lossy
Delay relative to video : 2s 335ms
Stream size : 348 MiB (3%)
Title : одноголосый, закадровый, Гаврилов
Language : Russian
Default : No
Forced : No
Audio #5
ID : 6
Format : AC-3
Format/Info : Audio Coding 3
Mode extension : CM (complete main)
Format settings, Endianness : Big
Codec ID : A_AC3
Duration : 2h 6mn
Bit rate mode : Constant
Bit rate : 448 Kbps
Channel(s) : 6 channels
Channel positions : Front: L C R, Side: L R, LFE
Sampling rate : 48.0 KHz
Bit depth : 16 bits
Compression mode : Lossy
Delay relative to video : 2s 335ms
Stream size : 406 MiB (4%)
Title : одноголосый, закадровый, Живов
Language : Russian
Default : No
Forced : No
Audio #6
ID : 7
Format : AC-3
Format/Info : Audio Coding 3
Mode extension : CM (complete main)
Format settings, Endianness : Big
Codec ID : A_AC3
Duration : 2h 6mn
Bit rate mode : Constant
Bit rate : 384 Kbps
Channel(s) : 2 channels
Channel positions : Front: L R
Sampling rate : 48.0 KHz
Bit depth : 16 bits
Compression mode : Lossy
Delay relative to video : 2s 335ms
Stream size : 348 MiB (3%)
Title : одноголосый, закадровый, Володарский
Language : Russian
Default : No
Forced : No
Audio #7
ID : 8
Format : AC-3
Format/Info : Audio Coding 3
Mode extension : CM (complete main)
Format settings, Endianness : Big
Codec ID : A_AC3
Duration : 2h 6mn
Bit rate mode : Constant
Bit rate : 640 Kbps
Channel(s) : 6 channels
Channel positions : Front: L C R, Side: L R, LFE
Sampling rate : 48.0 KHz
Bit depth : 16 bits
Compression mode : Lossy
Delay relative to video : 2s 335ms
Stream size : 581 MiB (6%)
Title : English original
Language : English
Default : No
Forced : No
Text
ID : 9
Format : UTF-8
Codec ID : S_TEXT/UTF8
Codec ID/Info : UTF-8 Plain Text
Title : Русские полные
Language : Russian
Default : No
Forced : No

Анимированные скриншоты для оценки 3Д-эффекта




Остальные раздачи этого фильма (5)
Благодарности релизеру (33)

Торрент:

Статус:

Размер:

Зарегистрирован   [ 2013-04-18 14:32 ]

проверено

10.05 GB

 
 Мнение о фильме (75)

1, 2, 3, 4  След.






Это конвертация???
 

Это конвертация???
Да, студийный конверт, но качество ни сколько не уступает, если даже не превосходит Титаник.
 

Dag13, Ясно, надо качать и смотреть!)
Только раздачи НЕТ!(
 

эпичнейший конверт эпичнейшего кино, чувствуется рука мастера!
стоит ли ждать горизонтальной пары гигов на 15 или качать с рутора 16-гиговую?
лично мне 3 звуковые дороги не нужны (а более трех так и подавно)
 

Вот это конвертация!!! Вот это 3D!!! Да еще и без черных полос! Скажу прямо - не ожидал!
Неужели теперь можно любой фильм переводить в 3D и получать отличный результат?
Или денег на качественную конвертацию может хватить только у Лукаса, Кэмерона и Спилберга? Сколько хороших фильмов хотелось бы увидеть в таком качественном 3D! Огромное спасибо релизеру!
 

Конвертация, на мой придирчивый взгляд, вышла достаточно средней, создалось впечатление, что оттридешивали "Парк" несколько разнокалиберных фирм. Есть очень хорошие кадры, с правильной глубиной, но часто попадаются кадры с тупым халтурным разнесением плоских планов.
В общем, этот конверт гораздо лучше, чем, например, наш мега-треш "Джунгли", но гораздо хуже, чем 3D "Титаник" (пока для меня это эталон конвертации).
 

Слушайте господа, реально крутой конверт, судя по скринам! благодарю!
 

да, Оливанос . не у каждого есть 10 лямов долларов только на конвертацию
 

эти лямы окупяться за апрель! спасибо за релиз
 

Дело не только в деньгах, Cineman, а в том, что теперь есть возможность КАЧЕСТВЕННО переделать фильм в 3D формат. Я еще не видел, как конвертировали первую серию "Звездных войн", надеюсь, будет не хуже, но уверен, что стоимость конвертации они легко отобьют повторным прокатом и выпуском BD.
Конечно, фильмы типа "Остина Пауэрса" конвертировать может только дебил, но есть много достойных картин, которые и я, и другие люди с удовольствием посмотрели бы в 3D и в кинотеатре, и дома.
P.S. Даешь "Кинг Конг" в 3D!!! И "Властелина" !!
 

Конверт и правда очень хорошего качества, не хуже чем у Кэмерона, а остальным режиссерам и их командам стоит поучиться у них, чтобы выдавать 3D такого же качества.
ps если кому то нужны одноголосые авторские переводы могу залить их на yandex.disk вечером?
 

Прекрасный объем , научились-таки нормально конверты делать ! Пускай теперь всю классику в 3D переделывают - я только за !))
 

Мда, сей конверт получше многих real-ов будет! Магёте, когда хочете, господа американцы.
 

Большое спасибо StarStranger!!!!! Хоть у меня все три части есть на лицензионных дисках, но думаю в 3D будет интереснее посмотреть. Фильм - то интересный.
 

Блин, обидно что я пересмотрел 3логию с месяц назад(
 

Неожиданно хорошее 3D для конвертации. Вылетов правда не заметил, а глубина достойная, как показалось особенно в начале.
 

3D - впечатляет, фильм отличный!
 

Сам фильм оценивать уже поздно, но по качеству спец эффектов для того времени, ну и ныне смотрится очень хорошо -на отлично, сюжет из всей серии в этой части самый лучший.
Что до конвертации, 4 с плюсом, хорошо чувствуется глубина, персонажи не картонные, но вот что заметно это отличие режесера снимающего для 3Д и 2Д, ракурсы не совсем подходящие. В общем конвертация меня очень порадовала, в коллекции однозначно.
 

Такой фильм отлично подойдет для коллекции!!!
 

Всё отлично,только жаль озвучка не чистая а наложка.
 

Страница 1 из 4

1, 2, 3, 4  След.