Торренты   
 
 

 

Похищение века / The Kidnapping of the Century (Виталий Макаров) [1981 г., 480p, Anamorph OverUnder]

Рейтинг 3D:
5 голосов
8.7
Рейтинг фильма:
4 голосов
8.6
 
Вы должны быть авторизированы,
чтобы ставить оценки


Похищение века / The Kidnapping of the Century
Год выпуска: 1981
Страна: СССР
Жанр: комедия
Продолжительность: 1час 07 мин
Перевод: Часть русской - часть английской дорожки
Режиссер: Виталий Макаров
В ролях: Александр Никифоров, Евгений Меньшов, Марина Дюжева, Елена Мельникова, Давид (Додо) Абашидзе, Гурам Лордкипанидзе, Юрий Саранцев, Рудольф Рудин, Ерванд (Эрик) Арзуманян, Артем Карапетян, Вадим Захарченко, Юрий Чекулаев, Абессалом Лория, Зоя Василькова, Юрий Белов, Леонид Князев, Зинаида Сорочинская
Описание: Стереофильм. Два друга-автомеханика решили провести отпуск на Черноморском побережье. Известие о прибытии "знаменитых мастеров" взбудоражило жителей южного городка, после чего последовали приключения, недоразумения и похищение одного из них...
Доп. информация: 3d Over-Under - Вертикальная стереопара
Вставлены фрагменты оригинальной русской озвучки
Перезалейте torrent пожалуйста - исправлена проблема с расхождением ракурсов . Спасибо samfednik за скрипт
Верхний ракурс правый - нужно поменять ракурсы местами в настройках телевизора !
Формат 3D: Anamorph OverUnder
Видео: h264,NTSC,704*480,4:3,2500kbit/sec,24fps

Скриншоты



Media Info

General
Complete name : H:\video\Kidnapping of Century\final2\Похищение Века (1981) 3D-halfOU-Eng-Rus.avi
Format : AVI
Format/Info : Audio Video Interleave
File size : 1.30 GiB
Duration : 1h 7mn
Overall bit rate : 2 766 Kbps
Writing library : VirtualDub build 32842/release
Video
ID : 0
Format : AVC
Format/Info : Advanced Video Codec
Format profile : High@L3.0
Format settings, CABAC : Yes
Format settings, ReFrames : 3 frames
Codec ID : H264
Duration : 1h 7mn
Bit rate : 1 345 Kbps
Width : 704 pixels
Height : 480 pixels
Display aspect ratio : 3:2
Frame rate : 23.976 fps
Standard : NTSC
Color space : YUV
Chroma subsampling : 4:2:0
Bit depth : 8 bits
Scan type : Progressive
Bits/(Pixel*Frame) : 0.166
Stream size : 645 MiB (49%)
Writing library : x264 core 96 r1613kMod 81e75e9
Encoding settings : cabac=1 / ref=3 / deblock=1:0:0 / analyse=0x3:0x13 / me=umh / subme=7 / psy=1 / psy_rd=1.00:0.00 / mixed_ref=1 / me_range=16 / chroma_me=1 / trellis=1 / 8x8dct=1 / cqm=0 / deadzone=21,11 / fast_pskip=1 / chroma_qp_offset=-2 / threads=4 / sliced_threads=1 / slices=4 / nr=0 / decimate=1 / interlaced=0 / constrained_intra=0 / bframes=0 / weightp=2 / keyint=250 / keyint_min=25 / scenecut=40 / intra_refresh=0 / rc=crf / mbtree=0 / crf=26.0000 / qcomp=0.60 / qpmin=10 / qpmax=51 / qpstep=4 / ip_ratio=1.40 / aq=1:1.00
Audio
Format : PCM
Format settings, Endianness : Little
Format settings, Sign : Unsigned
Codec ID : 1
Codec ID/Hint : Microsoft
Duration : 1h 7mn
Bit rate mode : Constant
Bit rate : 1 411.2 Kbps
Channel(s) : 2 channels
Sampling rate : 44.1 KHz
Bit depth : 16 bits
Stream size : 677 MiB (51%)
Interleave, duration : 42 ms (1.00 video frame)
Interleave, preload duration : 500 ms
Остальные раздачи этого фильма (2)
Благодарности релизеру (3)

Торрент:

Статус:

Размер:

Зарегистрирован   [ 2013-04-27 21:05 ]

* не проверено

963 MB