Торренты   
 
 


Арктика в 3Д / To the Arctic 3D (Грег МакГилври / Greg MacGillivray) [2012, Документальный, BDrip, 1080p]Full OverUnder / Вертикальная стереопара

Рейтинг 3D:
42 голосов
6.5
Рейтинг фильма:
41 голосов
6.8
 
Вы должны быть авторизированы,
чтобы ставить оценки


Арктика / To the Arctic
Год выпуска: 2012
Страна: США
Студия: Warner Bros. Pictures, IMAX, One World One Ocean, MacGillivray Freeman Films
Жанр: Документальный
Продолжительность: 00:40:26
Перевод: Профессиональный (двухголосый закадровый)
Русские субтитры: нет
Режиссер на русском: Грег МакГилври
Режиссер на английском: Greg MacGillivray
Описание: Необыкновенное путешествие на край земли, новый фильм IMAX «Арктика 3D» рассказывает историю любви к жизни и борьбы за выживание. В оригинальной версии картины звучит закадровый голос трехкратной обладательницы премии «Оскар», актрисы Мерил Стрип.
Мы отправляемся в Арктику в компании белой медведицы и двух ее малышей. Перемены, пришедшие в арктическую пустыню, заставляют их идти вглубь континента, чтобы найти себе безопасное место для обитания. Увлекательные приключения медвежьей семьи на фоне тающих снегов, древних ледников, огромных водопадов и величественных заснеженных вершин помогут лучше узнать этих удивительных и отважных животных.
Сэмпл : http://www.sendspace.com/file/whi33n
Качество: BDrip
Контейнер: MKV
Формат 3D: OverUnder / Вертикальная стереопара
Порядок ракурсов: левый ракурс первый
Видео кодек: x264
Аудио кодек: AC3
Видео: AVC / High@L5.0 / 23,976 fps / 1920х2160 / 35,3 Мбит/сек
Аудио: Русский / AC3 / 48 KHz / 5.1 ch / 640 Кбит/сек (DVO - Студия "Омикрон")
Аудио 2: Английский / AC3 / 48 KHz / 5.1 ch / 640 Кбит/сек
Релиз группы: ВНИМАНИЕ ! На встроенных ТВ-плейерах работать не будет!!!
Железные плееры на которых воспроизводятся полные стереопары:Popcorn C-200 , Dune HD Smart D1 , Dune HD DUO , Dune HD Smart H1 , Dune HD Smart B1 , Dune HD Max , Dune HD TV-303D , Dune HD Base 3D

MediaInfo

Общее
Уникальный идентификатор : 204716840653876104573224169120444509019 (0x9A030783B719CB74883A52F96988EB5B)
Полное имя : F:\видео\To the Arctic.Rip by SeRoGa00.mkv
Формат : Matroska
Версия формата : Version 2
Размер файла : 10,5 Гбайт
Продолжительность : 40 м.
Общий поток : 37,4 Мбит/сек
Дата кодирования : UTC 2013-05-03 07:01:54
Программа кодирования : mkvmerge v3.4.0 ('Rapunzel') сборка от May 15 2010 09:38:20
Библиотека кодирования : libebml v0.8.0 + libmatroska v0.9.0
Видео
Идентификатор : 1
Формат : AVC
Формат/Информация : Advanced Video Codec
Профиль формата : High@L5.0
Параметр CABAC формата : Да
Параметр ReFrames формата : 4 кадра
Идентификатор кодека : V_MPEG4/ISO/AVC
Продолжительность : 40 м.
Битрейт : 35,3 Мбит/сек
Ширина : 1920 пикселей
Высота : 2160 пикселей
Соотношение сторон : 0,889
Частота кадров : 23,976 кадра/сек
Цветовое пространство : YUV
Субдискретизация насыщенности : 4:2:0
Битовая глубина : 8 бит
Тип развёртки : Прогрессивная
Бит/(Пиксели*Кадры) : 0.355
Размер потока : 9,98 Гбайт (95%)
Заголовок : Rip by SeRoGa00
Библиотека кодирования : x264 core 128 r2216kMod 198a7ea
Настройки программы : cabac=1 / ref=4 / deblock=1:-3:-3 / analyse=0x3:0x113 / me=umh / subme=9 / psy=1 / fade_compensate=0.00 / psy_rd=1.00:0.15 / mixed_ref=1 / me_range=16 / chroma_me=1 / trellis=2 / 8x8dct=1 / cqm=0 / deadzone=21,11 / fast_pskip=1 / chroma_qp_offset=-3 / threads=9 / lookahead_threads=1 / sliced_threads=0 / nr=0 / decimate=1 / interlaced=0 / bluray_compat=0 / constrained_intra=0 / bframes=6 / b_pyramid=2 / b_adapt=2 / b_bias=0 / direct=3 / weightb=1 / open_gop=0 / weightp=2 / keyint=250 / keyint_min=23 / scenecut=40 / intra_refresh=0 / rc_lookahead=60 / rc=crf / mbtree=1 / crf=18.0000 / qcomp=0.60 / qpmin=10 / qpmax=69 / qpstep=4 / vbv_maxrate=40000 / vbv_bufsize=40000 / crf_max=0.0 / nal_hrd=none / ip_ratio=1.40 / aq=1:1.00
Язык : English
Аудио #1
Идентификатор : 2
Формат : AC-3
Формат/Информация : Audio Coding 3
Расширение режима : CM (complete main)
Идентификатор кодека : A_AC3
Продолжительность : 40 м.
Вид битрейта : Постоянный
Битрейт : 640 Кбит/сек
Каналы : 6 каналов
Расположение каналов : Front: L C R, Side: L R, LFE
Частота : 48,0 КГц
Битовая глубина : 16 бит
Метод сжатия : С потерями
Размер потока : 185 Мбайт (2%)
Язык : Russian
Аудио #2
Идентификатор : 3
Формат : AC-3
Формат/Информация : Audio Coding 3
Расширение режима : CM (complete main)
Идентификатор кодека : A_AC3
Продолжительность : 40 м.
Вид битрейта : Постоянный
Битрейт : 640 Кбит/сек
Каналы : 6 каналов
Расположение каналов : Front: L C R, Side: L R, LFE
Частота : 48,0 КГц
Битовая глубина : 16 бит
Метод сжатия : С потерями
Размер потока : 185 Мбайт (2%)
Язык : English

Скриншоты


Остальные раздачи этого фильма (2)
Благодарности релизеру (6)

Торрент:

Статус:

Размер:

Зарегистрирован   [ 2013-05-03 12:23 ]

проверено

10.55 GB

 
 Мнение о фильме (17)





Благодарю за релиз, очень нравятся такие фильмы. P.S. прошлый релиз не скачался вообще, качал неделю.
 

Обалденный фильм, всем советую....
 

IMAX всегда радует своим отличным качеством, нареканий никаких в фильму.
 

Фильм интересный
 

НЕ досмотрел, трид вообще ноль. или водка так подействовала.
 

Крутой фильм!
 

Фильм качественный, про 3Д сказать особо нечего, то есть, то нет.
 

Приветствую всех, и не хочу плохо говорить ни о чём, но, после скачивания, фильм не запустился....=Файл не читается= Попробую скачать ещё раз, уж больно хочется посмотреть...
 

Фильм просто изумительный,особенно моменты с мамой медведицей и медвежатами
 

Хороший фильм, но название выбрано неверно. Здесь больше о медведях, чем о арктике в целом. В то же время медведи не подкачали и фильм спасли ;)
3D особенно хорошо смотрится на пейзажах.
 

фильм после скачивания не читается 3д не смешивается в одну картинку у меня Dune Base HD
 

3д супер смотрел на lg lm 660 t . Кто любит животный мир фильм для вас.
 

НЕ знаю как другим но мне очень понравилось я как бы любитель фильмов про животных а посмотреть в 3д это просто прекрасно.
 

Фильм понравился. Все качественно.
 

Класс
 

Фильм просто супер 3D супер Крутой фильм! Понравился.
 

Понравился
 
СергейМилько Профиль 29-Ноя-2014 15:14