Торренты   
 
 


Техасская резня бензопилой 3D / Texas Chainsaw 3D (Джон Льюсенхоп) [2013 г., Anamorph SideBySide]

Рейтинг 3D:
88 голосов
5.8
Рейтинг фильма:
87 голосов
5.4
 
Вы должны быть авторизированы,
чтобы ставить оценки


Техасская резня бензопилой 3D / Texas Chainsaw 3D
Год выпуска: 2013
Страна: США
Жанр: Ужасы, триллер
Продолжительность: 01:31:56
Перевод: Профессиональный (полное дублирование)
Режиссер: Джон Льюсенхоп
В ролях: Александра Даддарио, Дэн Игер, Трей Сонгз, Таня Рэймонд, Том Бэрри, Пол Рэй, Билл Моусли, Скотт Иствуд, Шон Сайпос, Керам Малики-Санчес
Описание: Местный шериф согласился организовать для Джеба Сойера, который и скрывался под Кожаным лицом, честный судебный процесс и предоставить ему адвоката. Однако его намерениям мешает мэр, который ведет за собой толпу людей, жаждущих линчевать кровавого маньяка. Когда ситуация начинает выходить из-под контроля, а горожане принимаются ладить петли для убийцы, кто-то бросает в дом Сойера бутылку с зажигательной смесью. Дом сгорает, а вместе с ним в огне гибнут и все, кто в нем находился, включая самого Джеба и его отца. Разумеется, спустя определенное время убийства с помощью бензопилы начинаются снова. Первое предположение шерифа — Джеб Сойер выжил и решил отомстить. Но он ли это на самом деле? И если нет, то кто?
Доп. информация: Звук взят из CamRip (заменен только центральный канал, остальные 5 оригинальные)
Формат 3D: Anamorph SideBySide
Порядок ракурсов: Параллельная пара
Видео: http://multi-up.com/861711

Скриншоты




Media Info

Format : Matroska
Format version : Version 4 / Version 2
File size : 7.28 GiB
Duration : 1h 31mn
Overall bit rate : 11.3 Mbps
Encoded date : UTC 2013-05-03 13:42:21
Writing application : mkvmerge v6.1.0 ('Old Devil') built on Mar 2 2013 14:32:37
Writing library : libebml v1.3.0 + libmatroska v1.4.0
Video #1
ID : 1
Format : AVC
Format/Info : Advanced Video Codec
Format profile : High@L4.1
Format settings, CABAC : Yes
Format settings, ReFrames : 2 frames
Codec ID : V_MPEG4/ISO/AVC
Duration : 1h 31mn
Bit rate : 10.7 Mbps
Width : 1 920 pixels
Height : 1 080 pixels
Display aspect ratio : 16:9
Frame rate mode : Constant
Frame rate : 23.976 fps
Color space : YUV
Chroma subsampling : 4:2:0
Bit depth : 8 bits
Scan type : Progressive
Bits/(Pixel*Frame) : 0.215
Stream size : 6.85 GiB (94%)
Writing library : x264 core
Language : English
Default : Yes
Forced : No
Color primaries : BT.709
Transfer characteristics : BT.709
Matrix coefficients : BT.709
Audio #2
ID : 2
Format : AC-3
Format/Info : Audio Coding 3
Mode extension : CM (complete main)
Format settings, Endianness : Big
Codec ID : A_AC3
Duration : 1h 31mn
Bit rate mode : Constant
Bit rate : 448 Kbps
Channel(s) : 6 channels
Channel positions : Front: L C R, Side: L R, LFE
Sampling rate : 48.0 KHz
Bit depth : 16 bits
Compression mode : Lossy
Stream size : 295 MiB (4%)
Default : Yes
Forced : No
Остальные раздачи этого фильма (3)
Благодарности релизеру (14)

Торрент:

Статус:

Размер:

Зарегистрирован   [ 2013-05-03 19:32 ]

проверено

7.28 GB

 
 Мнение о фильме (21)

Пред.  1, 2






почему раздачи нету ? =( сиды есть, а фильмы не качает...
 

Страница 2 из 2

Пред.  1, 2