Торренты   
 
 

 

Папуа 3D: Секретный остров каннибалов / Papua: The Secret Island of the Cannibals (Питер Лорд) [2012 г., BDrip, Anamorph OverUnder]

Рейтинг 3D:
10 голосов
7.6
Рейтинг фильма:
10 голосов
7.0
 
Вы должны быть авторизированы,
чтобы ставить оценки


Папуа 3D: Секретный остров каннибалов
Papua: The Secret Island of the Cannibals
Год выпуска: 2012
Страна: США | 3D Media
Жанр: документальный
Продолжительность: 01:01:20
Перевод: Отсутствует
Режиссер: Питер Лорд
Описание: Мы много знаем о доисторическом периоде, но увидеть «каменный век» своими глазами, можно совершив видеопутешествие в один из самых загадочных уголков Земли — Папуа Новую Гвинею. Каменные топоры и наконечники, уникальная природа джунглей, десятки племен, славящихся каннибализмом — это обычная жизнь Гвинеи, которая у цивилизованного человека вызывает острый интерес и прилив адреналина. Голубые лагуны и пустынные пляжи, не знающие границ, непременно восхитят вас своей красотой, а фантастическое многообразие животного мира, усилят впечатления от просмотра.
Формат 3D: Anamorph OverUnder
Видео: AVC, High@L4.1, 1920х1080, 23,976 кадра/сек, 15,1 Мбит/сек
Аудио:
Music, AC-3, 6 каналов, 640 Кбит/сек, 48,0 КГц
Eng, AC-3, 6 каналов, 640 Кбит/сек, 48,0 КГц

Скриншоты

Media Info

Код:
Общее
Уникальный идентификатор                 : 228103062287585007790477776492343483291 (0xAB9B0D4332A9FE2F9E61EF4E62225B9B)
Полное имя                               : H:\Papua.TheSecretIslandOfTheCannibals.3D.2012.BD3DRip.Half.OU.x264.AC3.3D-RuGroup.mkv
Формат                                   : Matroska
Версия формата                           : Version 2
Размер файла                             : 7,18 Гбайт
Продолжительность                        : 1 ч. 1 м.
Общий поток                              : 16,8 Мбит/сек
Название фильма                          : Papua: The Secret Island of the Cannibals 3D release 3D-RuGroup rip by StarStranger
Дата кодирования                         : UTC 2013-05-04 08:32:53
Программа кодирования                    : mkvmerge v3.4.0 ('Rapunzel') сборка от May 15 2010 09:38:20
Библиотека кодирования                   : libebml v0.8.0 + libmatroska v0.9.0
Видео
Идентификатор                            : 1
Формат                                   : AVC
Формат/Информация                        : Advanced Video Codec
Профиль формата                          : High@L4.1
Параметр CABAC формата                   : Да
Параметр ReFrames формата                : 4 кадра
Идентификатор кодека                     : V_MPEG4/ISO/AVC
Продолжительность                        : 1 ч. 1 м.
Битрейт                                  : 15,1 Мбит/сек
Ширина                                   : 1920 пикселей
Высота                                   : 1080 пикселей
Соотношение сторон                       : 16:9
Режим частоты кадров                     : Постоянный
Частота кадров                           : 23,976 кадра/сек
Цветовое пространство                    : YUV
Субдискретизация насыщенности            : 4:2:0
Битовая глубина                          : 8 бит
Тип развёртки                            : Прогрессивная
Бит/(Пиксели*Кадры)                      : 0.305
Размер потока                            : 6,49 Гбайт (90%)
Библиотека кодирования                   : x264 core 130 r2273 b3065e6
Настройки программы                      : cabac=1 / ref=4 / deblock=1:-2:-2 / analyse=0x3:0x133 / me=umh / subme=9 / psy=1 / psy_rd=1.00:0.15 / mixed_ref=1 / me_range=32 / chroma_me=1 / trellis=2 / 8x8dct=1 / cqm=0 / deadzone=21,11 / fast_pskip=0 / chroma_qp_offset=-3 / threads=12 / lookahead_threads=2 / sliced_threads=0 / nr=0 / decimate=1 / interlaced=0 / bluray_compat=0 / constrained_intra=0 / bframes=7 / b_pyramid=2 / b_adapt=2 / b_bias=0 / direct=3 / weightb=1 / open_gop=0 / weightp=2 / keyint=250 / keyint_min=23 / scenecut=40 / intra_refresh=0 / rc_lookahead=60 / rc=crf / mbtree=1 / crf=18.0 / qcomp=0.60 / qpmin=0 / qpmax=69 / qpstep=4 / vbv_maxrate=50000 / vbv_bufsize=62500 / crf_max=0.0 / nal_hrd=none / ip_ratio=1.40 / aq=1:0.90
Default                                  : Нет
Forced                                   : Нет
Аудио #1
Идентификатор                            : 2
Формат                                   : AC-3
Формат/Информация                        : Audio Coding 3
Расширение режима                        : CM (complete main)
Параметр Endianness формата              : Big
Идентификатор кодека                     : A_AC3
Продолжительность                        : 1 ч. 1 м.
Вид битрейта                             : Постоянный
Битрейт                                  : 640 Кбит/сек
Каналы                                   : 6 каналов
Расположение каналов                     : Front: L C R, Side: L R, LFE
Частота                                  : 48,0 КГц
Битовая глубина                          : 16 бит
Метод сжатия                             : С потерями
Размер потока                            : 281 Мбайт (4%)
Заголовок                                : music
Default                                  : Нет
Forced                                   : Нет
Аудио #2
Идентификатор                            : 3
Формат                                   : AC-3
Формат/Информация                        : Audio Coding 3
Расширение режима                        : CM (complete main)
Параметр Endianness формата              : Big
Идентификатор кодека                     : A_AC3
Продолжительность                        : 1 ч. 1 м.
Вид битрейта                             : Постоянный
Битрейт                                  : 640 Кбит/сек
Каналы                                   : 6 каналов
Расположение каналов                     : Front: L C R, Side: L R, LFE
Частота                                  : 48,0 КГц
Битовая глубина                          : 16 бит
Метод сжатия                             : С потерями
Размер потока                            : 281 Мбайт (4%)
Язык                                     : English
Default                                  : Нет
Forced                                   : Нет
Меню
00:00:00.000                             : :01
00:09:54.969                             : :02
00:35:45.185                             : :03
00:48:14.850                             : :04
Релиз группы:

Проверено на встроенном плейере ТВ LG 42LW4500
Благодарности релизеру (19)

Торрент:

Статус:

Размер:

Зарегистрирован   [ 2013-05-04 13:13 ]

проверено

7.18 GB

 
 Мнение о фильме (3)





Неплохой фильм , жаль качество видео неочень, при движении камеры картинка частично смазывается , скачал на соседнем треккере у Ash61 та же проблема , видно снято так было.
 

Название не оправдывает ожидания. Оценка 3D -6,5. Оценка фильма- 4 из 10. Фильм показался затянутым. Просмотр с целью релаксации возможен, но надоедает примитивное музыкальное сопровождение.Голосовая озвучка могла бы несколько оживить фильм, но она отсутствует.
 

название и содержание абсолютно несоответствуют друг другу, богатейшее место на Земле по разнообразию наземной и подводной жизни снято в одном отеле с многочисленными повторами. Съемка очень непрофессиональная, при движении камеры очень неприятная для глаз нерезкость изображения. Удачным можно назвать всего лишь несколько эпизодов с наездом, например с мантой.
 
Всеволодович Профиль 02-Июн-2013 10:38