Торренты   
 
 

 

Цирк дю Солей: Сказочный мир в 3Д / Cirque du Soleil: Worlds Away 3D (Эндрю Адамсон / Andrew Adamson) [2012, Фэнтези, Мюзикл, Цирк, BDrip, 1080p]Full OverUnder / Вертикальная стереопара

Рейтинг 3D:
50 голосов
7.6
Рейтинг фильма:
49 голосов
7.1
 
Вы должны быть авторизированы,
чтобы ставить оценки


Цирк дю Солей: Сказочный мир / Cirque du Soleil: Worlds Away
Год выпуска: 2012
Страна: США
Студия: Paramaunt Pictures, Cirque du Soleil Burlesco, Reel FX Creative Studios, Strange Weather Films
Жанр: Фэнтези, Мюзикл, Цирк
Продолжительность: 01:31:12
Перевод: Профессиональный (дублированный)
Русские субтитры: нет
Режиссер на русском: Эндрю Адамсон
Режиссер на английском: Andrew Adamson
В ролях: Эрика Линц, Игорь Зарипов, Лутс Халбхюбнер, Джон Кларк, Даллас Барнетт, Таня Дрюери, Сара Хуболт, Аскья Мэйбери, Дэмиен Гордон, Зэк Бриклэнд, Ирен Год, ...
Описание: Удивительная история двух влюбленных, которых разлучила судьба, по мотивам лучших шоу Cirque du Soleil. Им придется пройти через многое, чтобы снова быть вместе…
Сэмпл: http://www.sendspace.com/file/9fuz3f
Качество: BDrip
Контейнер: MKV
Формат 3D: OverUnder / Вертикальная стереопара
Порядок ракурсов: левый ракурс первый
Видео кодек: x264
Аудио кодек: AC3
Видео: AVC / High@L5.0 / 23,976 fps / 1920х2160 / 18,8 Мбит/сек
Аудио: Русский / AC3 / 48 KHz / 5.1 ch / 448 Кбит/сек
Аудио 2: Украинский / AC3 / 48 KHz / 5.1 ch / 448 Кбит/сек
Аудио 3: Английский / AC3 / 48 KHz / 5.1 ch / 640 Кбит/сек
Релиз группы: ВНИМАНИЕ ! На встроенных ТВ-плейерах работать не будет!!!
Железные плееры на которых воспроизводятся полные стереопары:Popcorn C-200 , Dune HD Smart D1 , Dune HD DUO , Dune HD Smart H1 , Dune HD Smart B1 , Dune HD Max , Dune HD TV-303D , Dune HD Base 3D

MediaInfo

Общее
Уникальный идентификатор : 180697671909916895576410905472012701297 (0x87F11B108C07147486CA585715F4CE71)
Полное имя : E:\закачки\Cirque du Soleil Worlds Away.Rip by SeRoGa00.mkv
Формат : Matroska
Версия формата : Version 2
Размер файла : 13,2 Гбайт
Продолжительность : 1 ч. 31 м.
Общий поток : 20,8 Мбит/сек
Дата кодирования : UTC 2013-05-06 07:49:53
Программа кодирования : mkvmerge v3.4.0 ('Rapunzel') сборка от May 15 2010 09:38:20
Библиотека кодирования : libebml v0.8.0 + libmatroska v0.9.0
Видео
Идентификатор : 1
Формат : AVC
Формат/Информация : Advanced Video Codec
Профиль формата : High@L5.0
Параметр CABAC формата : Да
Параметр ReFrames формата : 4 кадра
Идентификатор кодека : V_MPEG4/ISO/AVC
Продолжительность : 1 ч. 31 м.
Битрейт : 18,8 Мбит/сек
Ширина : 1920 пикселей
Высота : 2160 пикселей
Соотношение сторон : 0,889
Частота кадров : 23,976 кадра/сек
Цветовое пространство : YUV
Субдискретизация насыщенности : 4:2:0
Битовая глубина : 8 бит
Тип развёртки : Прогрессивная
Бит/(Пиксели*Кадры) : 0.189
Размер потока : 12,0 Гбайт (91%)
Заголовок : Rip by SeRoGa00
Библиотека кодирования : x264 core 128 r2216kMod 198a7ea
Настройки программы : cabac=1 / ref=4 / deblock=1:-3:-3 / analyse=0x3:0x113 / me=umh / subme=9 / psy=1 / fade_compensate=0.00 / psy_rd=1.00:0.15 / mixed_ref=1 / me_range=16 / chroma_me=1 / trellis=2 / 8x8dct=1 / cqm=0 / deadzone=21,11 / fast_pskip=1 / chroma_qp_offset=-3 / threads=9 / lookahead_threads=1 / sliced_threads=0 / nr=0 / decimate=1 / interlaced=0 / bluray_compat=0 / constrained_intra=0 / bframes=6 / b_pyramid=2 / b_adapt=2 / b_bias=0 / direct=3 / weightb=1 / open_gop=0 / weightp=2 / keyint=250 / keyint_min=23 / scenecut=40 / intra_refresh=0 / rc_lookahead=60 / rc=crf / mbtree=1 / crf=18.0000 / qcomp=0.60 / qpmin=10 / qpmax=69 / qpstep=4 / vbv_maxrate=40000 / vbv_bufsize=40000 / crf_max=0.0 / nal_hrd=none / ip_ratio=1.40 / aq=1:1.00
Язык : English
Аудио #1
Идентификатор : 2
Формат : AC-3
Формат/Информация : Audio Coding 3
Расширение режима : CM (complete main)
Идентификатор кодека : A_AC3
Продолжительность : 1 ч. 31 м.
Вид битрейта : Постоянный
Битрейт : 448 Кбит/сек
Каналы : 6 каналов
Расположение каналов : Front: L C R, Side: L R, LFE
Частота : 48,0 КГц
Битовая глубина : 16 бит
Метод сжатия : С потерями
Размер потока : 292 Мбайт (2%)
Аудио #2
Идентификатор : 3
Формат : AC-3
Формат/Информация : Audio Coding 3
Расширение режима : CM (complete main)
Идентификатор кодека : A_AC3
Продолжительность : 1 ч. 31 м.
Вид битрейта : Постоянный
Битрейт : 448 Кбит/сек
Каналы : 6 каналов
Расположение каналов : Front: L C R, Side: L R, LFE
Частота : 48,0 КГц
Битовая глубина : 16 бит
Метод сжатия : С потерями
Размер потока : 292 Мбайт (2%)
Аудио #3
Идентификатор : 4
Формат : AC-3
Формат/Информация : Audio Coding 3
Расширение режима : CM (complete main)
Идентификатор кодека : A_AC3
Продолжительность : 1 ч. 31 м.
Вид битрейта : Постоянный
Битрейт : 640 Кбит/сек
Каналы : 6 каналов
Расположение каналов : Front: L C R, Side: L R, LFE
Частота : 48,0 КГц
Битовая глубина : 16 бит
Метод сжатия : С потерями
Размер потока : 418 Мбайт (3%)

Скриншоты


Остальные раздачи этого фильма (3)
Благодарности релизеру (8)

Торрент:

Статус:

Размер:

Зарегистрирован   [ 2013-05-06 13:29 ]

проверено

13.24 GB

 
 Мнение о фильме (22)

1, 2  След.






5shadow2, на любителя, меня не особо впечатлил, а жена в восторге была, в кино смотрели
 

Отличный отдыхающий фильм, смотрел в кино, наконец-то дождался на этом сайте, для добавления в свою коллекцию.
 

Жена и дочка оч.любят цирк,так что качаю однозначно!На руторе лежит в 2д-отзывы более чем положительные!За релиз отдельное спасибо!
 

Я не фанат подобного жанра, но посмотрел с удовольствием. 3D очень даже к месту.
 

Спасибо,мне это зрелище понравилось,как в сказке!
 

Спасибо релизёру!Хотел посмотреть всемирно известный цирк.Посмотрел.Особого восторга не было.Шоу красивое,цирк- так себе.3D понравилось.
 

Двоякое впечатление, сначала вроде интересно, а со второй половины можно уснуть) 3D хорошего качества
 

Цирк впечатляющий. Смотрится красиво, но влюбленная сюжетная линия просматривается трудновато.
 

очень понравилось спасибо
 

Дю Солей - мерзкое зрелище.
 

webwalk, а мерзкое в чем уважаемый?
 

Я люблю цирк!
 

Постановки этого цирка семье очень нравятся. 3D хорошее. Спасибо !
 

очень хороший цирковой спектакль. наслаждался. 3д без вылетов , но в тему
 

фильм классный, посмотрели семьей с удовольствием. 3 д без вылетов но в хорошем объеме. спасибо большое.
 

Прекрасное 3D, красивая картинка. Правда на 2 часа меня не хватило, красота усыпляет
 

Мне понравился.
 

прикольно, но для фанатов....(не люблю цирк)
 

На любителя.
 

огромное спс просто отпад супер
 

Страница 1 из 2

1, 2  След.