Торренты   
 
 

 

Час призраков / Время призраков / 3 A.M. (Исара Нади / Isara Nadee, Kirati Nakintanon, Patchanon Thammajira) [2012 г., Anamorph SideBySide]

Рейтинг 3D:
20 голосов
8.1
Рейтинг фильма:
18 голосов
5.0
 
Вы должны быть авторизированы,
чтобы ставить оценки


Час призраков / Время призраков / 3 A.M.
Год выпуска: 2012
Страна: Таиланд
Жанр: ужасы
Продолжительность: 01:34:35
Перевод:Одноголосый закадровый ( Хихикающий доктор )
Режиссер: Исара Нади / Isara Nadee, Kirati Nakintanon, Patchanon Thammajira
В ролях: Апиня Сакуляроенсак, Фокус Джиракул, Шакрит Ямнарм, Рэй МакДональд, Тони Раккаен, Питер Найт, Васана Чалакорн и другие..
Описание: 3 часа ночи — время призраков. Три истории, рассказанные ночью. Их объединяет одно — страх.
Доп. информация: Рип Public3D

Формат 3D: SideBySide
Видео: AVC, High@L4.0, 1920х1080, 23,976 кадра/сек, 10,4 Мбит/сек
Аудио: Rus, AC-3, 2 канала, 192 Кбит/сек, 48,0 КГц

Скриншоты




Media Info

Общее
Уникальный идентификатор : 249687271483208433076882963955355927896 (0xBBD804F0120E78788CB7696992C6C558)
Полное имя : E:\STEREO\3 A.M.halfSBS.mkv
Формат : Matroska
Версия формата : Version 2
Размер файла : 7,12 Гбайт
Продолжительность : 1 ч. 34 м.
Общий поток : 10,8 Мбит/сек
Дата кодирования : UTC 2013-05-06 09:52:51
Программа кодирования : mkvmerge v3.4.0 ('Rapunzel') сборка от May 15 2010 09:38:20
Библиотека кодирования : libebml v0.8.0 + libmatroska v0.9.0
Видео
Идентификатор : 1
Формат : AVC
Формат/Информация : Advanced Video Codec
Профиль формата : High@L4.1
Параметр CABAC формата : Да
Параметр ReFrames формата : 2 кадра
Идентификатор кодека : V_MPEG4/ISO/AVC
Продолжительность : 1 ч. 34 м.
Битрейт : 10,4 Мбит/сек
Ширина : 1920 пикселей
Высота : 1080 пикселей
Соотношение сторон : 16:9
Частота кадров : 23,976 кадра/сек
Цветовое пространство : YUV
Субдискретизация насыщенности : 4:2:0
Битовая глубина : 8 бит
Тип развёртки : Прогрессивная
Бит/(Пиксели*Кадры) : 0.208
Размер потока : 6,85 Гбайт (96%)
Библиотека кодирования : x264 core
Язык : English
Default : Нет
Forced : Нет
Основные цвета : BT.709-5, BT.1361, IEC 61966-2-4, SMPTE RP177
Характеристики трансфера : BT.709-5, BT.1361
Коэффициенты матрицы : BT.709-5, BT.1361, IEC 61966-2-4 709, SMPTE RP177
Аудио
Идентификатор : 2
Формат : AC-3
Формат/Информация : Audio Coding 3
Расширение режима : CM (complete main)
Идентификатор кодека : A_AC3
Продолжительность : 1 ч. 34 м.
Вид битрейта : Постоянный
Битрейт : 192 Кбит/сек
Каналы : 2 канала
Расположение каналов : Front: L R
Частота : 48,0 КГц
Битовая глубина : 16 бит
Метод сжатия : С потерями
Размер потока : 130 Мбайт (2%)
Язык : Russian
Default : Да
Forced : Нет
Благодарности релизеру (14)

Торрент:

Статус:

Размер:

Зарегистрирован   [ 2013-05-06 17:18 ]

T временная

7.12 GB

 
 Мнение о фильме (8)





ну как фильм?
 

 

фильм состои из 3 новелл. первые 2 не очень, а 3 вполне неплохая, под настроение. В общем посмотреть можно
 

фильм для индийского сегмента.
 

Мне фильм не понравился,3Д хорошое
 

Фильм на любителя.Мне не очень. 3Д не плохое.
 

ФИЛЬМ НА ЛЮБИТЕЛЯ, НО МНЕ ПОНРАВИЛСЯ И 3D ХОРОШЕЕ
 

мне страшно было)))))) особенно, когда рука призрака в первой истории как-бы из экрана тянулась))