Торренты   
 
 


Летающая крепость / Fortress (Майк Филлипс) [2012 г., Anamorph OverUnder]

Рейтинг 3D:
25 голосов
5.3
Рейтинг фильма:
23 голосов
7.1
 
Вы должны быть авторизированы,
чтобы ставить оценки


Летающая крепость / Fortress
Год выпуска: 2012
Страна: США / Bayou Pictures, Diamondback 99
Жанр: боевик, военный
Продолжительность: 01:40:34
Перевод: Профессиональный (многоголосый, закадровый)
Режиссер: Майк Филлипс
В ролях: Баг Холл, Дон Джефкоат, Шон Макгоун, Крис Оуэн, Эдвард Финлэй, Ману Интирэйми, Джон Лофлин, Ховард Гибсон, Джозеф Уильямсон, Антонио Елиас
Описание: Командир экипажа B-17 Летящей Крепости убит во время военной операции в Сицилии в 1943 году. Его заменяют молодым, наивным пилотом, которого экипаж, состоящий из ирландцев и американцев, принимает в штыки.
Доп. информация:

ScreenList:

Аудио: Russian: AC3, 384 Kb/s (6 ch), English: DTS, 1509 Kb/s (6 ch)
Субтитры: Нет
Формат 3D: Anamorph OverUnder
Видео: 13.5 Mb/s, 1920x1080

Скриншоты






MediaInfo

Общее
Уникальный идентификатор : 221671082262069372079371095940630127519 (0xA6C44C29D54F217BA139EA333435239F)
Полное имя : H:\Фильмы\Видео скаченное 3D\Летающая крепость 3D\Fortress.2012.1080p.BDRip.3D.HalfOU.x264.DTS.ac3.eng.rus.mkv
Формат : Matroska
Версия формата : Version 2
Размер файла : 10,8 Гбайт
Продолжительность : 1 ч. 40 м.
Общий поток : 15,4 Мбит/сек
Название фильма : Fortress.2012 [HDv0T / Ramazan]
Дата кодирования : UTC 2013-04-04 09:03:28
Программа кодирования : mkvmerge v5.8.0 ('No Sleep / Pillow') built on Sep 2 2012 15:37:04
Библиотека кодирования : libebml v1.2.3 + libmatroska v1.3.0
Видео
Идентификатор : 1
Формат : AVC
Формат/Информация : Advanced Video Codec
Профиль формата : High@L4.1
Параметр CABAC формата : Да
Параметр ReFrames формата : 4 кадра
Идентификатор кодека : V_MPEG4/ISO/AVC
Продолжительность : 1 ч. 40 м.
Битрейт : 13,5 Мбит/сек
Ширина : 1920 пикселей
Высота : 1080 пикселей
Соотношение сторон : 16:9
Режим частоты кадров : Постоянный
Частота кадров : 23,976 кадра/сек
Цветовое пространство : YUV
Субдискретизация насыщенности : 4:2:0
Битовая глубина : 8 бит
Тип развёртки : Прогрессивная
Бит/(Пиксели*Кадры) : 0.271
Размер потока : 9,25 Гбайт (86%)
Заголовок : Fortress.2012.1080p.BDRip.3D.HalfOU.x264.DTS.ac3.eng.rus-HDv0T
Библиотека кодирования : x264 core 128 r2216kMod 198a7ea
Настройки программы : cabac=1 / ref=4 / deblock=1:-3:-3 / analyse=0x3:0x113 / me=umh / subme=9 / psy=1 / fade_compensate=0.00 / psy_rd=0.90:0.00 / mixed_ref=1 / me_range=16 / chroma_me=1 / trellis=2 / 8x8dct=1 / cqm=0 / deadzone=21,11 / fast_pskip=0 / chroma_qp_offset=-2 / threads=12 / lookahead_threads=2 / sliced_threads=0 / nr=0 / decimate=0 / interlaced=0 / bluray_compat=0 / constrained_intra=0 / bframes=6 / b_pyramid=2 / b_adapt=2 / b_bias=0 / direct=3 / weightb=1 / open_gop=0 / weightp=2 / keyint=250 / keyint_min=23 / scenecut=40 / intra_refresh=0 / rc=2pass / mbtree=0 / bitrate=13490 / ratetol=1.0 / qcomp=0.60 / qpmin=0 / qpmax=69 / qpstep=4 / cplxblur=20.0 / qblur=0.5 / frame-packing=4 / ip_ratio=1.40 / pb_ratio=1.30 / aq=1:0.90
Язык : English
Default : Да
Forced : Нет
Аудио #1
Идентификатор : 2
Формат : AC-3
Формат/Информация : Audio Coding 3
Расширение режима : CM (complete main)
Параметр Endianness формата : Big
Идентификатор кодека : A_AC3
Продолжительность : 1 ч. 40 м.
Вид битрейта : Постоянный
Битрейт : 384 Кбит/сек
Каналы : 6 каналов
Расположение каналов : Front: L C R, Side: L R, LFE
Частота : 48,0 КГц
Битовая глубина : 16 бит
Метод сжатия : С потерями
Размер потока : 276 Мбайт (2%)
Заголовок : AC3 5.1 @ 384 kbps |MVO, лицензия R5|
Язык : Russian
Default : Да
Forced : Нет
Аудио #2
Идентификатор : 3
Формат : DTS
Формат/Информация : Digital Theater Systems
Режим : 16
Параметр Endianness формата : Big
Идентификатор кодека : A_DTS
Продолжительность : 1 ч. 40 м.
Вид битрейта : Постоянный
Битрейт : 1509 Кбит/сек
Каналы : 6 каналов
Расположение каналов : Front: L C R, Side: L R, LFE
Частота : 48,0 КГц
Битовая глубина : 24 бит
Метод сжатия : С потерями
Размер потока : 1,06 Гбайт (10%)
Заголовок : DTS 5.1 @ 1536 kbps
Язык : English
Default : Нет
Forced : Нет
Меню
00:00:00.000 : en:01
00:10:24.040 : en:02
00:21:10.895 : en:03
00:29:59.339 : en:04
00:38:19.339 : en:05
00:48:15.976 : en:06
00:59:34.196 : en:07
01:10:35.273 : en:08
01:19:41.527 : en:09
01:29:49.843 : en:10
01:36:38.209 : en:11
Благодарности релизеру (34)

Торрент:

Статус:

Размер:

Зарегистрирован   [ 2013-05-12 12:55 ]

# сомнительно

10.79 GB

 
 Мнение о фильме (8)





Фильм посмотреть можно,3Д слабое
 

Мне фильм не понравился!!!! нудный
 
виталик дз Профиль 25-Май-2013 16:52

Нормальный фильм про войну.Спасибо.
 

отличный фильм!!!
правда я его уже смотрел
 

сюжет на мой взгляд слабоват, скачивал чтобы посмотреть сцены воздушных боев. Пеарл Харбор получше будет.
 
Олег Подворный Профиль 24-Окт-2013 21:23

Шикарное сравнение, фильм для тв с бюджетом в 3 ляма и блокбастер Перл Харбор за 140 зелёных))))
 

для тех кто не равнодушен к небу и самолетам...фильм супер!!! смотрел давно, посмотрю еще
 

Из большинства зарубежных фильмов, о военных лётчиках Второй Мировой Войны,этот фильм,на мой взгляд-удачный и смотрибельный....Без,сказочных небылиц и тошнотного американского патриотизма,с пафосом ...
От 3D эффекта ожидал большего....Ни одного "вылета",за пределы экрана,хотя,сюжет воздушных баталий,вполне-позволяет......