Торренты   
 
 


Самый страшный фильм в 3Д / Dead Before Dawn 3D (Эйприл Маллен / April Mullen) [2012, Ужасы, Комедия, BDrip, 1080p] Half OverUnder / Вертикальная анаморфная стереопара

Рейтинг 3D:
21 голосов
6.6
Рейтинг фильма:
23 голосов
3.3
 
Вы должны быть авторизированы,
чтобы ставить оценки


Самый страшный фильм 3Д Dead Before Dawn 3D
Год выпуска: 2012
Страна: Канада (Wango Films)
Жанр: Ужасы, Комедия
Продолжительность: 01:28:23
Перевод: Профессиональный (полное дублирование)
Режиссер: Эйприл Маллен / April Mullen
В ролях:Casper Galloway - Девон Бостик (Антон Савенков)
Horus Galloway - Кристофер Ллойд (Никита Джигурда)
Charlotte Baker - Марта МакАйсак (Ольга Голованова)
Dazzle Darlington - Брэндон Джей МакЛарен (L’One ["#давайдосвиданья"])
Lucy Winthrop - Бриттани Аллен (Светлана Курицына)
Becky Fords - Эйприл Маллен
Seth Munday - Тим Дойрон (Александр Дасевич)
Professor Reginald Duffy - Кевин МакДональд (Владимир Рыбальченко)
Beverly Galloway - Эллен Дубин
Patrick Bishop - Кайл Шмид
Burt Rumsfeld - Россиф Сазерленд (Валентин Стрыкало)
Описание:
Комедийная пародия на фильмы о зомби. Оставшись за главного в лавке древностей, принадлежащей его деду, Каспер, и его друзья по колледжу, случайно разбивают старинный артефакт и обрушивают себе на голову древнее проклятье. Теперь, стоит им только взглянуть на кого-нибудь, как тот убивает себя, а потом воскресает зомбаком! Пока друзья разбирались в чем тут дело, половина города успела превратится в зомби. Зомбаками стали даже ребята из сборной колледжа по футболу и девчонки из группы поддержки. Теперь друзьям необходимо срочно найти способ снять проклятье. Это будет нелегко, но зато очень круто и дико смешно!--Премьера: 28 сентября 2012 (11 октября 2012)
Бюджет: $?
Кассовые сборы в России: $608 881
Релиз на DVD : 24 декабря 2012

. .
Проверено на встроенном плейере ТВ LG LW 650S
--Качество: BDrip
Контейнер: MKV
Формат 3D: Anamorph OverUnder / Вертикальная анаморфная стереопара
Порядок ракурсов: левый ракурс первый
Видео кодек: x264
Аудио кодек: AC3
Видео: AVC / 23,976 fps / 1920х1080p / 11,2 Mbps
Аудио 1: Русский / AC3 / 48 KHz / 5.1 ch / 448 Kbps (Дубляж - R5)
Аудио 2: Английский / AC3 / 48 KHz / 5.1 ch / 640 Kbps (Original)

Скриншоты

Media Info

Общее
Уникальный идентификатор : 234245240564537446060970012336467836408 (0xB039FE083F4D692EB16EB35D96197DF8)
Полное имя : E:\Dead Before Dawn 3D (2012).BDRip.1080p.Half OU.x264.AC3.Rus.3D-RuGroup.(m@rik05).mkv
Формат : Matroska
Версия формата : Version 4 / Version 2
Размер файла : 7,73 Гбайт
Продолжительность : 1 ч. 28 м.
Общий поток : 12,5 Мбит/сек
Название фильма : Dead Before Dawn 3D (2012) 3D-RuGroup (m@rik05)
Дата кодирования : UTC 2013-05-11 19:57:03
Программа кодирования : mkvmerge v6.2.0 ('Promised Land') built on Apr 28 2013 12:22:01
Библиотека кодирования : libebml v1.3.0 + libmatroska v1.4.0
Attachment : Yes
Видео
Идентификатор : 1
Формат : AVC
Формат/Информация : Advanced Video Codec
Профиль формата : High@L4.1
Параметр CABAC формата : Да
Параметр ReFrames формата : 4 кадра
Идентификатор кодека : V_MPEG4/ISO/AVC
Продолжительность : 1 ч. 28 м.
Битрейт : 11,2 Мбит/сек
Ширина : 1920 пикселей
Высота : 1080 пикселей
Соотношение сторон : 16:9
Режим частоты кадров : Постоянный
Частота кадров : 23,976 кадра/сек
Цветовое пространство : YUV
Субдискретизация насыщенности : 4:2:0
Битовая глубина : 8 бит
Тип развёртки : Прогрессивная
Бит/(Пиксели*Кадры) : 0.225
Размер потока : 6,91 Гбайт (89%)
Заголовок : BDrip (by m@rik05)
Библиотека кодирования : x264 core 116 r2074 2641b9e
Настройки программы : cabac=1 / ref=4 / deblock=1:-3:-3 / analyse=0x3:0x113 / me=umh / subme=9 / psy=1 / psy_rd=1.00:0.15 / mixed_ref=1 / me_range=32 / chroma_me=1 / trellis=2 / 8x8dct=1 / cqm=0 / deadzone=21,11 / fast_pskip=1 / chroma_qp_offset=-3 / threads=12 / sliced_threads=0 / nr=0 / decimate=1 / interlaced=0 / bluray_compat=0 / constrained_intra=0 / bframes=6 / b_pyramid=2 / b_adapt=2 / b_bias=0 / direct=3 / weightb=1 / open_gop=0 / weightp=2 / keyint=250 / keyint_min=23 / scenecut=40 / intra_refresh=0 / rc_lookahead=60 / rc=crf / mbtree=1 / crf=16.0 / qcomp=0.60 / qpmin=10 / qpmax=51 / qpstep=4 / vbv_maxrate=40000 / vbv_bufsize=30000 / crf_max=0.0 / nal_hrd=none / frame-packing=4 / ip_ratio=1.40 / aq=1:0.70
Язык : English
Default : Да
Forced : Нет
Аудио #1
Идентификатор : 2
Формат : AC-3
Формат/Информация : Audio Coding 3
Расширение режима : CM (complete main)
Параметр Endianness формата : Big
Идентификатор кодека : A_AC3
Продолжительность : 1 ч. 28 м.
Вид битрейта : Постоянный
Битрейт : 448 Кбит/сек
Каналы : 6 каналов
Расположение каналов : Front: L C R, Side: L R, LFE
Частота : 48,0 КГц
Битовая глубина : 16 бит
Метод сжатия : С потерями
Размер потока : 283 Мбайт (4%)
Заголовок : AC3 / 5.1 ch / 448 kbps / (Дубляж - R5 )
Язык : Russian
Default : Да
Forced : Да
Аудио #2
Идентификатор : 3
Формат : AC-3
Формат/Информация : Audio Coding 3
Расширение режима : CM (complete main)
Параметр Endianness формата : Big
Идентификатор кодека : A_AC3
Продолжительность : 1 ч. 28 м.
Вид битрейта : Постоянный
Битрейт : 640 Кбит/сек
Каналы : 6 каналов
Расположение каналов : Front: L C R, Side: L R, LFE
Частота : 48,0 КГц
Битовая глубина : 16 бит
Метод сжатия : С потерями
Размер потока : 405 Мбайт (5%)
Заголовок : AC3 / 48 KHz / 5.1 ch / 640 Kbps (Original)
Язык : English
Default : Нет
Forced : Нет
Остальные раздачи этого фильма (2)
Благодарности релизеру (20)

Торрент:

Статус:

Размер:

Зарегистрирован   [ 2013-05-14 15:46 ]

проверено

7.73 GB

 
 Мнение о фильме (10)





И почему всякую хрень снимают без черных полос?
 

И почему всякую хрень снимают без черных полос?
потому что заранее знали и расчитывали эту муть не на большие кинозалы :)
 
ВАСИЛИЙ СОЛОМОН Профиль 24-Фев-2013 16:11

Фильм на любителя , но посмотреть в 3D можно.
 

по НТВ+ щас идет ..
 

можно посмотреть
 

Супер дерьмо...
 

дермище несусветное!!!!!!!!!!Релизеру за труды-респект,он не виноват
 

Рип по видео отличный. Но на встроенном плеере LG 47LW575S при воспроизведении русской дорожки постоянно кратковременные выпадения звука. На компе все ОК. Может кто-нибудь знает в чем проблема?
 
001_mailinator2_com Профиль 27-Июл-2013 14:45

где старые актеры? ноу не интересно
 

Фильм супер. 2 раза посмотрел