Торренты   
 
 


В логове дракона / Dragon's Feast / Into the Dragon's Lair [2010 г., Anamorph OverUnder]

Рейтинг 3D:
8 голосов
6.4
Рейтинг фильма:
9 голосов
6.3
 
Вы должны быть авторизированы,
чтобы ставить оценки


В логове дракона
Dragon's Feast / Into the Dragon's Lair

Год выпуска: 2010
Страна: Великобританмя
Жанр: документальный
Продолжительность: 00:54:15
Перевод: Отсутствует
В ролях: Didier Noirot, Роджер Хоррокс
Описание: Река Окаванго в юго-Западной Африке, где обитает один из самых опасных хищников: крокодил. Посмотрите на них в этом фильме, снятом в 3D.
Формат 3D: Anamorph OverUnder
Видео: AVC, High@L4.1, 1920х1080, 23,976 кадра/сек, 13,9 Мбит/сек
Аудио: Eng, AC-3, 6 каналов, 640 Кбит/сек, 48,0 КГц
Сутитры: английские

Скриншоты

Media Info

Код:
Общее
Уникальный идентификатор                 : 205853634994505417025287712910604067676 (0x9ADDF7CD844E5D578C602BBD0E3D635C)
Полное имя                               : H:\DragonFeast.3D.BD3DRip.Half.OU.x264.AC3.3D-RuGroup.mkv
Формат                                   : Matroska
Версия формата                           : Version 2
Размер файла                             : 5,63 Гбайт
Продолжительность                        : 54 м.
Общий поток                              : 14,9 Мбит/сек
Название фильма                          : Dragon Feast release 3D-RuGroup rip by StarStranger
Дата кодирования                         : UTC 2013-05-13 20:20:10
Программа кодирования                    : mkvmerge v3.4.0 ('Rapunzel') сборка от May 15 2010 09:38:20
Библиотека кодирования                   : libebml v0.8.0 + libmatroska v0.9.0
Видео
Идентификатор                            : 1
Формат                                   : AVC
Формат/Информация                        : Advanced Video Codec
Профиль формата                          : High@L4.1
Параметр CABAC формата                   : Да
Параметр ReFrames формата                : 4 кадра
Идентификатор кодека                     : V_MPEG4/ISO/AVC
Продолжительность                        : 54 м.
Битрейт                                  : 13,9 Мбит/сек
Ширина                                   : 1920 пикселей
Высота                                   : 1080 пикселей
Соотношение сторон                       : 16:9
Режим частоты кадров                     : Постоянный
Частота кадров                           : 23,976 кадра/сек
Цветовое пространство                    : YUV
Субдискретизация насыщенности            : 4:2:0
Битовая глубина                          : 8 бит
Тип развёртки                            : Прогрессивная
Бит/(Пиксели*Кадры)                      : 0.280
Размер потока                            : 5,28 Гбайт (94%)
Библиотека кодирования                   : x264 core 130 r2273 b3065e6
Настройки программы                      : cabac=1 / ref=4 / deblock=1:-2:-2 / analyse=0x3:0x133 / me=umh / subme=9 / psy=1 / psy_rd=1.00:0.15 / mixed_ref=1 / me_range=32 / chroma_me=1 / trellis=2 / 8x8dct=1 / cqm=0 / deadzone=21,11 / fast_pskip=0 / chroma_qp_offset=-3 / threads=12 / lookahead_threads=2 / sliced_threads=0 / nr=0 / decimate=1 / interlaced=0 / bluray_compat=0 / constrained_intra=0 / bframes=7 / b_pyramid=2 / b_adapt=2 / b_bias=0 / direct=3 / weightb=1 / open_gop=0 / weightp=2 / keyint=250 / keyint_min=23 / scenecut=40 / intra_refresh=0 / rc_lookahead=60 / rc=crf / mbtree=1 / crf=18.0 / qcomp=0.60 / qpmin=0 / qpmax=69 / qpstep=4 / vbv_maxrate=50000 / vbv_bufsize=62500 / crf_max=0.0 / nal_hrd=none / ip_ratio=1.40 / aq=1:0.90
Default                                  : Нет
Forced                                   : Нет
Аудио
Идентификатор                            : 2
Формат                                   : AC-3
Формат/Информация                        : Audio Coding 3
Расширение режима                        : CM (complete main)
Параметр Endianness формата              : Big
Идентификатор кодека                     : A_AC3
Продолжительность                        : 54 м.
Вид битрейта                             : Постоянный
Битрейт                                  : 640 Кбит/сек
Каналы                                   : 6 каналов
Расположение каналов                     : Front: L C R, Side: L R, LFE
Частота                                  : 48,0 КГц
Битовая глубина                          : 16 бит
Метод сжатия                             : С потерями
Размер потока                            : 248 Мбайт (4%)
Язык                                     : English
Default                                  : Нет
Forced                                   : Нет
Текст
Идентификатор                            : 3
Формат                                   : UTF-8
Идентификатор кодека                     : S_TEXT/UTF8
Идентификатор кодека/Информация          : UTF-8 Plain Text
Язык                                     : English
Default                                  : Нет
Forced                                   : Нет
Меню
00:00:00.000                             : :01
00:10:23.998                             : :02
00:21:23.991                             : :03
00:31:31.014                             : :04
00:42:48.983                             : :05
Релиз группы:

Проверено на встроенном плейере ТВ LG 42LW4500
Благодарности релизеру (18)

Торрент:

Статус:

Размер:

Зарегистрирован   [ 2013-05-14 18:10 ]

проверено

5.63 GB

 
 Мнение о фильме (2)





Фильм понравился. Очень. Даже без перевода. 54 мин на одном дыхании. А если бы еще знал о чем говорят, поставил бы 10. Подводные съемки - просто классика жанра! Вспомните столб солнечного света под водой, пробивающийся через дыру в травяном ковре на поверхности воды (специально заранее пробили, я бы так и поступил). Просто мороз по коже. Где вы, режиссеры и сценаристы ужастиков?
Понравилось отсутствие сцен с закладыванием руки, головы дрессировщика в симпатичный ротик крокодильчика, по-моему достаточно сцены с 2-мя девушками-калеками.
3D под водой, над водой OK!
 

Спасибо большое