Торренты   
 
 

 

Ку! Кин-дза-дза (Георгий Данелия, Татьяна Ильина) [2013 г., BDrip, Half1080p, Anamorph OverUnder]

Рейтинг 3D:
56 голосов
3.7
Рейтинг фильма:
60 голосов
5.9
 
Вы должны быть авторизированы,
чтобы ставить оценки


Ку! Кин-дза-дза
Год выпуска: 2013
Страна: Россия
Жанр: мультфильм, фантастика, комедия
Продолжительность: 01:36:27
Перевод: Не требуется
Режиссер: Георгий Данелия, Татьяна Ильина
Сценарий: Георгий Данелия, Александр Адабашьян, Андрей Усачев
Продюсер: Сергей Сельянов, Константин Эрнст, Леонид Ярмольник
Композитор: Гия Канчели
Художник: Александр Храмцов
Роли озвучивали: Николай Губенко, Иван Цехмистренко, Андрей Леонов, Алексей Колган, Александр Адабашьян, Георгий Данелия, Игорь Кваша, Вахтанг Кикабидзе, Галина Данелия-Юркова, Полина Кутепова
Описание: Начинающий диджей Толик и всемирно известный виолончелист Владимир Чижов встречают на шумной московской улице босого человека. Нажав на кнопку странной машинки, герои перемещаются на пустынную планету Плюк. Анимационный ремейк любимого всеми фильма «Кин-дза-дза!» не менее увлекательно и смешно, чем оригинал, рассказывает о приключениях Толика и дяди Вовы. В этом мире песка жители делятся на две категории — пацаков и чатлан, простая спичка обладает невероятной ценностью, а людей встречают и провожают по цвету штанов.
Качество: BDrip by StarStranger
Контейнер: MKV
Формат 3D: Anamorph OverUnder / Вертикальная анаморфная стереопара
Порядок ракурсов: левый ракурс первый
Видео кодек: x264
Аудио кодек: AC3
Видео: AVC, High@L4.1, 1920х1080, 23,976 кадра/сек, 3360 Кбит/сек
Аудио: Русский, AC-3, 6 каналов, 640 Кбит/сек, 48,0 КГц
Субтитры: English Full (отдельно на ЯндексДиск)

Скриншоты

Media Info

Код:
Общее
Уникальный идентификатор                 : 190058047094036119648005839509118230019 (0x8EFBD93133C4FA9796AD40A870279E03)
Полное имя                               : D:\Ku.KinDzaDza.3D.2013.BD3DRip.Half.OU.x264.AC3.3D-RuGroup.mkv
Формат                                   : Matroska
Версия формата                           : Version 2
Размер файла                             : 2,75 Гбайт
Продолжительность                        : 1 ч. 36 м.
Общий поток                              : 4081 Кбит/сек
Название фильма                          : Ку! Кин-дза-дза 3D release 3D-RuGroup rip by StarStranger aka itsamna
Дата кодирования                         : UTC 2013-05-15 04:27:00
Программа кодирования                    : mkvmerge v3.4.0 ('Rapunzel') сборка от May 15 2010 09:38:20
Библиотека кодирования                   : libebml v0.8.0 + libmatroska v0.9.0
Видео
Идентификатор                            : 1
Формат                                   : AVC
Формат/Информация                        : Advanced Video Codec
Профиль формата                          : High@L4.1
Параметр CABAC формата                   : Да
Параметр ReFrames формата                : 4 кадра
Идентификатор кодека                     : V_MPEG4/ISO/AVC
Продолжительность                        : 1 ч. 36 м.
Битрейт                                  : 3360 Кбит/сек
Ширина                                   : 1920 пикселей
Высота                                   : 1080 пикселей
Соотношение сторон                       : 16:9
Режим частоты кадров                     : Постоянный
Частота кадров                           : 23,976 кадра/сек
Цветовое пространство                    : YUV
Субдискретизация насыщенности            : 4:2:0
Битовая глубина                          : 8 бит
Тип развёртки                            : Прогрессивная
Бит/(Пиксели*Кадры)                      : 0.068
Размер потока                            : 2,26 Гбайт (82%)
Библиотека кодирования                   : x264 core 130 r2273 b3065e6
Настройки программы                      : cabac=1 / ref=4 / deblock=1:1:1 / analyse=0x3:0x133 / me=umh / subme=10 / psy=1 / psy_rd=0.80:0.00 / mixed_ref=1 / me_range=32 / chroma_me=1 / trellis=2 / 8x8dct=1 / cqm=0 / deadzone=21,11 / fast_pskip=0 / chroma_qp_offset=-2 / threads=12 / lookahead_threads=2 / sliced_threads=0 / nr=0 / decimate=1 / interlaced=0 / bluray_compat=0 / constrained_intra=0 / bframes=7 / b_pyramid=2 / b_adapt=2 / b_bias=0 / direct=3 / weightb=1 / open_gop=0 / weightp=2 / keyint=250 / keyint_min=23 / scenecut=40 / intra_refresh=0 / rc_lookahead=60 / rc=crf / mbtree=1 / crf=17.0 / qcomp=0.60 / qpmin=0 / qpmax=69 / qpstep=4 / vbv_maxrate=50000 / vbv_bufsize=62500 / crf_max=0.0 / nal_hrd=none / ip_ratio=1.40 / aq=1:0.90
Default                                  : Да
Forced                                   : Нет
Аудио
Идентификатор                            : 2
Формат                                   : AC-3
Формат/Информация                        : Audio Coding 3
Расширение режима                        : CM (complete main)
Параметр Endianness формата              : Big
Идентификатор кодека                     : A_AC3
Продолжительность                        : 1 ч. 36 м.
Вид битрейта                             : Постоянный
Битрейт                                  : 640 Кбит/сек
Каналы                                   : 6 каналов
Расположение каналов                     : Front: L C R, Side: L R, LFE
Частота                                  : 48,0 КГц
Битовая глубина                          : 16 бит
Метод сжатия                             : С потерями
Размер потока                            : 442 Мбайт (16%)
Язык                                     : Russian
Default                                  : Да
Forced                                   : Нет
Меню
00:00:00.000                             : :01
00:06:27.679                             : :02
00:11:31.274                             : :03
00:15:58.541                             : :04
00:20:26.016                             : :05
00:27:15.092                             : :06
00:32:28.655                             : :07
00:39:43.673                             : :08
00:48:43.879                             : :09
00:56:26.133                             : :10
01:00:42.639                             : :11
01:07:32.423                             : :12
01:15:52.381                             : :13
01:21:46.276                             : :14
01:27:33.999                             : :15
01:33:13.755                             : :16

Знаете ли вы, что...:

Андрей Леонов озвучивает Уэфа, которого в оригинальной картине сыграл его отец Евгений Леонов.
Мультфильм был запущен в производство 12 февраля 2005 года. Работа над картиной затянулась из-за прекращения финансирования в конце 2008 года и последовавших судебных разбирательств. Фильм был закончен в 2012 году благодаря распоряжению Правительства РФ Министерству культуры. Актер, который озвучил Толика, за время съёмок успел закончить школу, уйти в армию и вернуться из неё.
Релиз группы:

Проверено на встроенном плейере ТВ LG 42LW4500
Остальные раздачи этого фильма (2)
Благодарности релизеру (29)

Торрент:

Статус:

Размер:

Зарегистрирован   [ 2013-05-15 10:01 ]

проверено

2.75 GB

 
 Мнение о фильме (32)

Пред.  1, 2






Смотрел в 2D полный отстой! Да мне и фильм то не нравился! Но раздающему СПАСИБО-ЗА СТАРАНИЕ
 

вот абсолютно согласен, хороший мульт. 3D понятно отечественное, они по другому не умеют.
Тут я не согласен- У нас прекрасные художники! Но есть такая фраза ... а платить не пробовали??? Времена социализма прошли,что заплатили то и получили! ;)
 

halk22, при чем тут художники? к ним претензий нет! это конверт - продюсеры погнались за прибылью...
 

Мультфильм хороший, 3Д даже смотреть не буду после таких отзывов.
 

StarStranger - Абсолютно согласен!!!!!
 

Очередная дрянь и мерзость .
 

Посмотрел в 2D. Ничего нового, наверное, не скажу. Мультфильм слишком повторяет сюжет фильма. Не помню такого раньше, чтобы перезапуск фильма повторял сюжет вплоть до диалогов, до одинаковых событий. Некоторые сцены полностью повторяют оригинал, разве что нарисованы. Есть некоторые новые сцены, но их очень мало. Странный подход, не понятно в чем была задумка.
С одной стороны, интересно пересмотреть культовый фильм с другой точки зрения. Все таки анимация планеты сделана хорошо и есть новая атмосфера. Но, с другой стороны, я все это уже видел и знаю что будет дальше. К тому же, работа над персонажами пропита полностью. Досматривал еле еле, в два дня.
Задумка видимо была такая, чтобы привлечь молодое поколение к фильму, а значит главный ведущий персонаж стал подростком, а его неразумным спутником - взрослый. Ну, знаете, эти взрослые, никогда не понимают детей, а дети все лучше других знают.
Взрослый и молодой поменяются местами - видимо такова была задумка. В итоге, желая перенести старого персонажа - гордого амбициозного молодого скрипача - был создан несуразный взрослый человек, страдающий юношескими болячками. Получилось что-то нелепое. С подростком так же проблема, только наоборот, но выглядит чуть лучше. Остальных почти не меняли. Но, в целом, все они хуже старых живых персонажей. А персонажи были главной составляющей старого фильма, как я считаю. Поэтому и здесь, плохая работа над персонажами - главная причина провала.
 

Мультфильм - это всё то, что по каким-либо причинам не попало в фильм или было вырезано при монтаже, поэтому 90% картины - повтор один-в-один. Да, поменяли местами дядю Вову и "Скрипача" - и это минус, да Леонов и Яковлев - намного лучше, чем анимированные персонажи (даже интонации здесь звучат не так, как в фильме). И с этим никто не спорит. Но зато мы смогли увидеть практически то, что задумывалось изначально. Хотя для коллекции я его не оставлю.
Ах, да, 3D - средненькое.
 

Не понимаю зачем режиссер вернулся к кин-дза-дзе. Все уже было сказано в фильме, ни новых идей, ни новой картинки для глаз. 3д здесь просто для галочки. "Небо еще не видело такого позорного возвращения". Смотрел фильм раз 10 не меньше, а вот с мультиком меня хватило на один раз, и то с трудом.
 

фильм какбы лучше. может просто настальжи
 

Самое глубокое разочарование от просмотра. И 3D здесь не причём...
 

Смотреть не смог - бред, выключил на 10-й минуте. Да и 3Д занимает 1/3 экрана посередине - всё вытянуто вверх вниз
 

Страница 2 из 2

Пред.  1, 2