Торренты   
 
 

 

Ку! Кин-дза-дза (Георгий Данелия, Татьяна Ильина) [2013 г., BDRip, Full OverUnder]

Рейтинг 3D:
56 голосов
3.7
Рейтинг фильма:
60 голосов
5.9
 
Вы должны быть авторизированы,
чтобы ставить оценки


Ку! Кин-дза-дза
Год выпуска: 2013
Страна: Россия
Жанр: мультфильм, фантастика, комедия
Продолжительность: 01:36:27
Перевод: Не требуется
Режиссер: Георгий Данелия, Татьяна Ильина
В ролях: Николай Губенко, Иван Цехмистренко, Андрей Леонов, Алексей Колган, Александр Адабашьян, Георгий Данелия, Игорь Кваша, Вахтанг Кикабидзе, Галина Данелия-Юркова, Полина Кутепова
Описание: Начинающий диджей Толик и всемирно известный виолончелист Владимир Чижов встречают на шумной московской улице босого человека. Нажав на кнопку странной машинки, герои перемещаются на пустынную планету Плюк. Анимационный ремейк любимого всеми фильма «Кин-дза-дза!» не менее увлекательно и смешно, чем оригинал, рассказывает о приключениях Толика и дяди Вовы. В этом мире песка жители делятся на две категории — пацаков и чатлан, простая спичка обладает невероятной ценностью, а людей встречают и провожают по цвету штанов.
Релиз группы:
Формат 3D: BDRip, Full OverUnder
Видео: AVC, High@L4.0, 1920х2160, 23,976 кадра/сек, 8883 Кбит/сек
Аудио: Rus, DTS, 6 каналов, 1510 Кбит/сек, 48,0 КГц

Скриншоты




Media Info

Общее
Уникальный идентификатор : 188432374393111172086476672622231856657 (0x8DC2C156FCB325529A0159E7B860A611)
Полное имя : E:\STEREO\Ку_Кин-дза-дза_1080p_Rip by Dag13.mkv
Формат : Matroska
Версия формата : Version 2
Размер файла : 7,14 Гбайт
Продолжительность : 1 ч. 36 м.
Общий поток : 10,6 Мбит/сек
Дата кодирования : UTC 2013-05-15 08:06:28
Программа кодирования : mkvmerge v3.4.0 ('Rapunzel') сборка от May 15 2010 09:38:20
Библиотека кодирования : libebml v0.8.0 + libmatroska v0.9.0
Видео
Идентификатор : 1
Формат : AVC
Формат/Информация : Advanced Video Codec
Профиль формата : High@L5.0
Параметр CABAC формата : Да
Параметр ReFrames формата : 4 кадра
Идентификатор кодека : V_MPEG4/ISO/AVC
Продолжительность : 1 ч. 36 м.
Битрейт : 8883 Кбит/сек
Ширина : 1920 пикселей
Высота : 2160 пикселей
Соотношение сторон : 0,889
Частота кадров : 23,976 кадра/сек
Цветовое пространство : YUV
Субдискретизация насыщенности : 4:2:0
Битовая глубина : 8 бит
Тип развёртки : Прогрессивная
Бит/(Пиксели*Кадры) : 0.089
Размер потока : 5,98 Гбайт (84%)
Заголовок : Rip by Dag13
Библиотека кодирования : x264 core 120 r2145 748fe16
Настройки программы : cabac=1 / ref=4 / deblock=1:-3:-3 / analyse=0x3:0x113 / me=umh / subme=9 / psy=1 / psy_rd=1.00:0.00 / mixed_ref=1 / me_range=16 / chroma_me=1 / trellis=2 / 8x8dct=1 / cqm=0 / deadzone=21,11 / fast_pskip=1 / chroma_qp_offset=-2 / threads=9 / sliced_threads=0 / nr=0 / decimate=1 / interlaced=0 / bluray_compat=0 / constrained_intra=0 / bframes=6 / b_pyramid=2 / b_adapt=2 / b_bias=0 / direct=3 / weightb=1 / open_gop=0 / weightp=2 / keyint=250 / keyint_min=23 / scenecut=40 / intra_refresh=0 / rc_lookahead=60 / rc=crf / mbtree=1 / crf=17.0 / qcomp=0.60 / qpmin=1 / qpmax=69 / qpstep=4 / ip_ratio=1.40 / aq=1:1.00
Язык : English
Default : Нет
Forced : Нет
Аудио
Идентификатор : 2
Формат : DTS
Формат/Информация : Digital Theater Systems
Идентификатор кодека : A_DTS
Продолжительность : 1 ч. 36 м.
Вид битрейта : Постоянный
Битрейт : 1510 Кбит/сек
Каналы : 6 каналов
Расположение каналов : Front: L C R, Side: L R, LFE
Частота : 48,0 КГц
Битовая глубина : 16 бит
Метод сжатия : С потерями
Размер потока : 1,02 Гбайт (14%)
Язык : Russian
Default : Да
Forced : Нет
На встроенных ТВ-плейерах показывать НЕ будет!!!
Остальные раздачи этого фильма (2)
Благодарности релизеру (7)

Торрент:

Статус:

Размер:

Зарегистрирован   [ 2013-05-15 12:32 ]

проверено

7.14 GB

 
 Мнение о фильме (32)

1, 2  След.






Судя по скринам там 3д есть в отдельных сценах - из 9 скринов разных раздач увидел только у 2х сцен. Или 3д очень узкое - разница планов разной глубины буквально в пиксель.
 

Да с 3Д тут лажа. Местами вроде как есть, а местами плоско. Лучше в 2Д смотреть. Если сравнивать ракурсы то видно что картинка почемуто потянута. Конверт что ли?
 

А как со смыслом? Или тупо ремейк?
 

sanya856, Или тупо...
 

Ну зачем сразу мульту то такую низкую оценку выставлять? С 3д все понятно, но мульт то причем? Вы посмотрели уже? Тогда опишите. Я, например, не смотрел, мне интересно.
А если это так, на автомате, за все русское, так это ведь не тот случай. Над этим мультом сам Данелия работал и многие ждали его выхода десятилетия.
 

А мульт нормальный. Уважуха оригинальному фильму. Мульт не отстает, местами конечно нудный. Но однозначно не для детей.
 

The Message Is Removed
 

Ну зачем сразу мульту то такую низкую оценку выставлять?
вот абсолютно согласен, хороший мульт. 3D понятно отечественное, они по другому не умеют.
 

Muhomorius, ну с десятилетиями я переборщил, но десятилетие есть.
 

Отличный мультфильм, лучший из отечественных за последние десятилетия! Cмотрел в 2D.
 

Полная мутатень, жалкая пародия на фильм!
 

Фильм был замечателен великолепной игрой замечательных актёров и острой социальной сатирой.
Мульт, абсолютно ни о чём.
Даже великим людям надо уходить вовремя и с достоинством.
 

так как сам фильм мне нравится то и мульт понравился.мое мнение что в мульте нарисовали персонажи как их представляет автор и ето главное.в 3д еще не смотрел отпишусь позже.
 
АНДРЕЙЗ0Л0Т0К Профиль 18-Май-2013 18:03

Мультфильм стоит посмотреть, но 3D к сожалению невыразительное.
 

Да уж.... До фильма ему далеко.... смотриться как скучейшая муть.... Конечно фильм с актёрами это не мультик, даже не сравним как то....
 

3д ужас. местами бликует по страшному.
ВРЕДНО ДЛЯ ПРОСМОТРА! Что 3д что сам мульт.
 

Мульт неплох, но непонятно зачем снимать почти одинаковый сюжет еще раз. 3Д есть особенно на финальных титрах.
 

3Д ломает глаза. Вредно. Местами такое ощущение, что смотришь через конвертер телевизора. Порой зад и перед меняются местами. Если уж смотреть, то в 2Д. Ну, а если совсем не будете смотреть, не потеряете ничего. Будете жить со светлыми впечатлениями о фильме "Кин-дза-дза". За рип и релиз всё равно спасибо!
 

Смотрел в 2Д принципиально:) Если не сравнивать с фильмом, то вполне неплохо, весь негатив наверное от сравнения. Сначала правда скучновато было, но потом разошлось и похихикали. Мульт и фильм просто очень разные вещи, в фильме игра актёров, интонации и фразы, немного затянуто, а здесь динамичный, немного другой сюжет, больше комедии, приколов, ну как дополнение к фильму. Причем старые перлы вышли уныло, как повтор, послабее оригинала или просто сравнение с фильмом в голову лезет, а новые ничего так, свежо и весело. В общем неплохо, выше среднего, но за 3Д руки оторвать:)
ПС: Судя по оценкам, понравилось тем кто в 2Д смотрел, кто в 3Д - наоборот:) Наверно кривизна объёма давила на содержание.
 

Наверно кривизна объёма давила на содержание.
Возможно, ты прав. Вторую половину я тоже протерев глаза и проморгавшись досматривал переключив в 2D режим. Но осадок от первой половины повлиял на общее впечатление. Возможно.
 

Страница 1 из 2

1, 2  След.