Торренты   
 
 


Огонь Кристиана Лубутена / FEU: Crazy Horse Paris (Бруно Халлин / Bruno Hullin) [2012 г., Anamorph OverUnder]

Рейтинг 3D:
47 голосов
6.7
Рейтинг фильма:
44 голосов
6.6
 
Вы должны быть авторизированы,
чтобы ставить оценки


Огонь Кристиана ЛубутенаFEU: Crazy Horse Paris
Год выпуска: 2012
Страна: Франция (KaBo, Crazy Horse)
Жанр: Мюзикл, Шоу, Документальный
Продолжительность: 01:20:24
Перевод: Профессиональный (многоголосый, закадровый)
Режиссер: Бруно Халлин / Bruno Hullin
В ролях: Люмина Классика, Нука Карамель, Бейби Лайт, Кристиан Лубутен, Лив Менот, Дива Новита, Фьямма Роза, Ясна Снигура, Псикко Тико, Лоа Ваина
Описание: Знаменитый создатель туфель с красной подошвой ставит шоу в известном парижском клубе «CRAZY HORSE PARIS». По словам самого Лубутена, танцеальные номера в парижском кабаре «это памятник, памятник танцу, фантастическая идея праздника для женщин от женщин».
Доп. информация: Фильм содержит сцены эротического содержания.--Премьера: 31 декабря 2012 (11 апреля 2013)
Бюджет: $?
Кассовые сборы в России: $?
Релиз на DVD и Blu-Ray : 16 мая 2013

. .
Проверено на встроенном плейере ТВ LG LW 650S
--Качество: BDrip
Контейнер: MKV
Формат 3D: Anamorph OverUnder / Вертикальная анаморфная стереопара
Порядок ракурсов: левый ракурс первый
Видео кодек: x264
Аудио кодек: AC3
Видео: AVC / 23,976 fps / 1920х1080p / 8372 Kbps
Аудио 1: Русский / AC3 / 48 KHz / 5.1 ch / 640 Kbps (MVO - BD3D)
Аудио 2:Французский / AC3 / 48 KHz / 5.1 ch / 640 Kbps (Original)
Субтитры: встроенные Русские полные (SRT UTF-8)--

Log x264

Media Info

Общее
Уникальный идентификатор : 206781135520723757162970970664434436820 (0x9B90991BFDFAE81EA0037E36B4588AD4)
Полное имя : E:\3D FEU Crazy Horse Paris (2012)BDRip.1080p.Half OU.x264.AC3.Rus.3D-RuGroup.(m@rik05).mkv
Формат : Matroska
Версия формата : Version 4 / Version 2
Размер файла : 5,53 Гбайт
Продолжительность : 1 ч. 20 м.
Общий поток : 9848 Кбит/сек
Название фильма : 3D FEU: Crazy Horse Paris (2012) 3D-RuGroup (m@rik05)
Дата кодирования : UTC 2013-05-15 21:07:23
Программа кодирования : mkvmerge v6.2.0 ('Promised Land') built on Apr 28 2013 12:22:01
Библиотека кодирования : libebml v1.3.0 + libmatroska v1.4.0
Видео
Идентификатор : 1
Формат : AVC
Формат/Информация : Advanced Video Codec
Профиль формата : High@L4.1
Параметр CABAC формата : Да
Параметр ReFrames формата : 4 кадра
Идентификатор кодека : V_MPEG4/ISO/AVC
Продолжительность : 1 ч. 20 м.
Битрейт : 8372 Кбит/сек
Ширина : 1920 пикселей
Высота : 1080 пикселей
Соотношение сторон : 16:9
Режим частоты кадров : Постоянный
Частота кадров : 23,976 кадра/сек
Цветовое пространство : YUV
Субдискретизация насыщенности : 4:2:0
Битовая глубина : 8 бит
Тип развёртки : Прогрессивная
Бит/(Пиксели*Кадры) : 0.168
Размер потока : 4,70 Гбайт (85%)
Заголовок : BDrip (by m@rik05)
Библиотека кодирования : x264 core 116 r2074 2641b9e
Настройки программы : cabac=1 / ref=4 / deblock=1:-3:-3 / analyse=0x3:0x113 / me=umh / subme=9 / psy=1 / psy_rd=1.00:0.15 / mixed_ref=1 / me_range=32 / chroma_me=1 / trellis=2 / 8x8dct=1 / cqm=0 / deadzone=21,11 / fast_pskip=1 / chroma_qp_offset=-3 / threads=12 / sliced_threads=0 / nr=0 / decimate=1 / interlaced=0 / bluray_compat=0 / constrained_intra=0 / bframes=6 / b_pyramid=2 / b_adapt=2 / b_bias=0 / direct=3 / weightb=1 / open_gop=0 / weightp=2 / keyint=250 / keyint_min=23 / scenecut=40 / intra_refresh=0 / rc_lookahead=60 / rc=crf / mbtree=1 / crf=17.0 / qcomp=0.60 / qpmin=10 / qpmax=51 / qpstep=4 / vbv_maxrate=40000 / vbv_bufsize=30000 / crf_max=0.0 / nal_hrd=none / frame-packing=4 / ip_ratio=1.40 / aq=1:0.70
Язык : French
Default : Нет
Forced : Нет
Аудио #1
Идентификатор : 2
Формат : AC-3
Формат/Информация : Audio Coding 3
Расширение режима : CM (complete main)
Параметр Endianness формата : Big
Идентификатор кодека : A_AC3
Продолжительность : 1 ч. 20 м.
Вид битрейта : Постоянный
Битрейт : 640 Кбит/сек
Каналы : 6 каналов
Расположение каналов : Front: L C R, Side: L R, LFE
Частота : 48,0 КГц
Битовая глубина : 16 бит
Метод сжатия : С потерями
Размер потока : 368 Мбайт (6%)
Заголовок : AC3 / 5.1 ch / 640 kbps / Дубляж (BD CEE)
Язык : Russian
Default : Да
Forced : Да
Аудио #2
Идентификатор : 3
Формат : AC-3
Формат/Информация : Audio Coding 3
Расширение режима : CM (complete main)
Параметр Endianness формата : Big
Идентификатор кодека : A_AC3
Продолжительность : 1 ч. 20 м.
Вид битрейта : Постоянный
Битрейт : 640 Кбит/сек
Каналы : 6 каналов
Расположение каналов : Front: L C R, Side: L R, LFE
Частота : 48,0 КГц
Битовая глубина : 16 бит
Метод сжатия : С потерями
Размер потока : 368 Мбайт (6%)
Заголовок : AC3 / 5.1 ch / 640 kbps / Оригинал (BD CEE)
Язык : French
Default : Нет
Forced : Нет
Текст
Идентификатор : 4
Формат : UTF-8
Идентификатор кодека : S_TEXT/UTF8
Идентификатор кодека/Информация : UTF-8 Plain Text
Заголовок : Captions
Язык : Russian
Default : Да
Forced : Да
Меню
00:00:00.000 : en:00:00:00.000
00:05:08.517 : en:00:05:08.517
00:08:44.733 : en:00:08:44.733
00:16:15.183 : en:00:16:15.183
00:23:17.938 : en:00:23:17.938
00:25:49.882 : en:00:25:49.882
00:33:12.073 : en:00:33:12.073
00:38:48.076 : en:00:38:48.076
00:44:59.697 : en:00:44:59.697
00:53:06.392 : en:00:53:06.392
00:57:53.845 : en:00:57:53.845
01:05:11.366 : en:01:05:11.366
Благодарности релизеру (34)

Торрент:

Статус:

Размер:

Зарегистрирован   [ 2013-05-16 01:29 ]

проверено

5.53 GB

 
 Мнение о фильме (14)





Фильм показался скучноватым :(. Ожидалось, конечно, большего.3D есть, но тоже не впечатлило.ИМХО.
P.S. К танцовщицам вышеизложенное не относится. Они прекрасны и высокопрофессиональны.
 

Центральная идея фильма, о том что главный предмет женской одежды - туфли, подтверждается неопровержимыми аргументами. Обворожительные танцовщицы в одних туфлях выглядят просто, эффектно и элегантно. К сожалению поскупились на 3D эффекты. Скачивающих фильм, судя по их количеству, это особенно не огорчает.
 

Покорили меня Кристиан Лубутен, Bruno Hullin и грациозные танцовщицы. Устроили мне праздник, хоть я, вроде, и не женщина, но, как говорит поэт: «Лучшие мужчины – это женщины...».
Лубутен сказал, что «это памятник, памятник танцу, ... » - ему, конечно, видней, но мне кажется, что эта феерия настолько необычна по замыслу, красочна, эффектна и динамична, что никак не укладывается в моем сознании в определение «памятник». Все композиции совершенны!
Финальный номер на канатах FINAL FANTASY хоть и напоминает нечто знакомое, но столь грациозное исполнение позволяет забыть все ранее виденное.
UPSIDE DOWN показал сколь необычна фантазия у создателей, а искусное исполнение
даже подменило реальный мир миром иллюзий.
Но о SPOUTNIK хочется сказать особо. Именно в нем поэзия Р. Рождественского прекрасно
сочетается с утонченной хореографией, современной музыкой и великолепными женщинами, у которых все OK!, начиная от туфелек и кончая париками на голове. Этот номер заворожил меня.
3D, естественно, усилило эффект присутствия так, что захотелось в «CRAZY HORSE PARIS»,
но, увы, пока уезжаю с семьей отдыхать на БАМ (Берег Азовского Моря). До встречи.
 

Фильм скучный.3D обычное.
 

До ТОДЕСА им как до Луны, еще учиться, учиться и ещё раз учиться....
 

Crazy Horse на высоте. К музыке и хореографии претензий нет. Все номера отточены до автоматизма, возможно, слишком много автоматизма. Интересны и оригинальны комментарии Кристиан Лубутен. Но в целом, чувствуется какая-то незаконченность. Чего-то не хватает. Хотя, девушки в стеклянных шарах, просто великолепны! Шары, словно выдуваются из экрана. Хотя, 3D довольно средний, практически без выбросов. Но, в целом, посмотрел с удовольствием.
 

этот фильм о красоте женского тела , он и без 3д смотрелся бы замечательно .Любителям вылетов : 3д это не только ножики , вылетающие из экрана , в этом фильме оно только добавляет реалистичности . А так :скучновато , но красиво !
 
евгения мурашко Профиль 26-Май-2013 15:25

3D здесь явно для увеличения продаж этого УГ.
Если бы вдруг занесло на это шоу вживую, заснул бы через 10 минут.
 

не знаю- просто посмотрел. Без эмоций
 

смотреть на этого французишку и его никчёмные рассказы о себе скучно, девушки почти все доски, вывод - СМОТРЕТЬ НЕ НА ЧТО вообще, 3D посредственное ...
 

Dancers- hight level and quite professional, 3D effects not bad, but the film as a whole- quite monotonic. I had not a patient to see it till the end. My opinion- a life performance better, the film and a lot of monologs- are just boring- by the strike contrast with "Lord of the dance"- "Lord" is much-much better as a performance and as a film.
 

Не впечатлило.
 

Доски, говорите. Ну а положим как дамы с пятым размером будут повороты в строю делать? - дистанцию увеличить придется ;) Ну а в принципе в 3D (HSBS 1080p) есть записи танцев на шесте - интересно такое?
 

Не понравилось. 3D так себе, думаю и без него впечатление осталось бы таким же. Фильм красив и скучен. Но это мое мнение....