Торренты   
 
 

 

Охотники на ведьм 3Д / Hansel & Gretel: Witch Hunters 3D (Томми Виркола) [2013 г., Anamorph SideBySide]

Рейтинг 3D:
26 голосов
7.5
Рейтинг фильма:
24 голосов
6.4
 
Вы должны быть авторизированы,
чтобы ставить оценки


Охотники на ведьм 3Д / Hansel & Gretel: Witch Hunters 3D
Год выпуска: 2013
Страна: США, Германия
Жанр: ужасы, фэнтези, боевик
Продолжительность: 01:27:56
Перевод: Профессиональный (полное дублирование)
Режиссер: Томми Виркола
В ролях: Джереми Реннер, Джемма Артертон, Фамке Янссен, Пихла Виитала, Дерек Мирс, Робин Аткин Даунс, Ингрид Болсай Бердал, Джоэнна Кулиг, Томас Манн, Петер Стормаре
Описание: Едва не погибнув в лапах ужасной ведьмы, Гензель и Гретель стали только сильнее. Одержимые местью, они ведут отчаянную борьбу со злом, даже не подозревая, что их поджидает нечто куда более опасное... собственное прошлое...
Формат 3D: Anamorph SideBySide
Порядок ракурсов: Параллельная пара

Скриншоты

Media Info

Video
ID : 1
Format : AVC
Format/Info : Advanced Video Codec
Format profile : High@L4.1
Format settings, CABAC : Yes
Format settings, ReFrames : 2 frames
Muxing mode : Container profile=Unknown@4.1
Codec ID : V_MPEG4/ISO/AVC
Duration : 1h 27mn
Bit rate : 12.2 Mbps
Width : 1 920 pixels
Height : 1 080 pixels
Display aspect ratio : 16:9
Frame rate : 23.976 fps
Color space : YUV
Chroma subsampling : 4:2:0
Bit depth : 8 bits
Scan type : Progressive
Bits/(Pixel*Frame) : 0.245
Stream size : 7.48 GiB (91%)
Writing library : x264 core
Color primaries : BT.709-5, BT.1361, IEC 61966-2-4, SMPTE RP177
Transfer characteristics : BT.709-5, BT.1361
Matrix coefficients : BT.709-5, BT.1361, IEC 61966-2-4 709, SMPTE RP177
Audio #1
ID : 2
Format : AC-3
Format/Info : Audio Coding 3
Mode extension : CM (complete main)
Codec ID : A_AC3
Duration : 1h 27mn
Bit rate mode : Constant
Bit rate : 256 Kbps
Channel(s) : 2 channels
Channel positions : Front: L R
Sampling rate : 48.0 KHz
Stream size : 161 MiB (2%)
Language : Russian
Благодарности релизеру (10)

Торрент:

Статус:

Размер:

Зарегистрирован   [ 2013-05-17 08:49 ]

поглощено

8.19 GB

 
Комментарии:





Жаль что не полноэкранка. Надеюсь скоро появится.
 

Зачем фаб рип если появмлся нормальный рип.
 

почему нигде не указано что здесь " чистый звук" ?
 

dobd, а я разницы вообще не вижу,главное картинка суперская и звук+сам фильм на высоте,а "фаб" или "рип" это всё слова,смотрите BD3D тогда и будет вам счастье,релизёру СПС.
 

Snooker, да это даже не чистый звук, это какая то шляпа
Bit rate : 256 Kbps
Channel(s) : 2 channels
ps "ручной" рип с нормальным звуком вечером.
 

, а я разницы вообще не вижу
Вечером будет ручной рип - сравни.
 

Вечером будет ручной рип - сравни.
Неискушенный зритель разницы большой не заметит, но вес будет на порядок меньше.
 

sanya856, кагда вечером?
 

zubr-d-v, через 5 минут.
 

good !!!!
 

ЖУТЬ не люблю! Но первый фильм где уклонялся от вылетов )
 

В целом фильм понравился и 3Д классное. Единственное, не очень люблю кровавые сцены. А в целом посмотреть советую!
 

Топик был перенесен из форума 3D Фильмы в форум Архив

Zagruzin