Торренты   
 
 

 

Охотники на ведьм / Hansel & Gretel: Witch Hunters (Томми Виркола) [2013 г., BDRip, Full OverUnder]

Рейтинг 3D:
570 голосов
8.0
Рейтинг фильма:
563 голосов
7.6
 
Вы должны быть авторизированы,
чтобы ставить оценки


Охотники на ведьм / Hansel & Gretel: Witch Hunters
Год выпуска: 2013
Страна: США, Германия
Жанр: ужасы, фэнтези, боевик
Продолжительность: 01:27:56
Перевод: Профессиональный (полное дублирование) Чистый звук
Режиссер: Томми Виркола
В ролях: Джереми Реннер, Джемма Артертон, Фамке Янссен, Пихла Виитала, Дерек Мирс, Робин Аткин Даунс, Ингрид Болсай Бердал, Джоэнна Кулиг, Томас Манн, Петер Стормаре
Описание: Едва не погибнув в лапах ужасной ведьмы, Гензель и Гретель стали только сильнее. Одержимые местью, они ведут отчаянную борьбу со злом, даже не подозревая, что их поджидает нечто куда более опасное... собственное прошлое...
Релиз группы:
Формат 3D: OverUnder BDRip, Full
Видео: AVC, High@L4.0, 1920х1600, 23,976 кадра/сек, 17,2 Мбит/сек
Аудио: Rus, AC3, 6 каналов, 448 Кбит/сек, 48,0 КГц
Аудио: Eng, AC3, 6 каналов, 640 Кбит/сек, 48,0 КГц

Скриншоты




Media Info

Общее
Уникальный идентификатор : 242984471936080559199890445719186951799 (0xB6CD1B67C74114529234E6E07E03CE77)
Полное имя : E:\STREAM\Hansel&Gretel_WitchHunters_1080p_Rip by Dag13.mkv
Формат : Matroska
Версия формата : Version 2
Размер файла : 11,5 Гбайт
Продолжительность : 1 ч. 27 м.
Общий поток : 18,7 Мбит/сек
Название фильма : Охотники на ведьм / Hansel & Gretel: Witch Hunters (3D) 2013 (by Ash61)
Дата кодирования : UTC 2013-05-17 06:25:13
Программа кодирования : mkvmerge v3.4.0 ('Rapunzel') сборка от May 15 2010 09:38:20
Библиотека кодирования : libebml v0.8.0 + libmatroska v0.9.0
Видео
Идентификатор : 1
Формат : AVC
Формат/Информация : Advanced Video Codec
Профиль формата : High@L5.0
Параметр CABAC формата : Да
Параметр ReFrames формата : 4 кадра
Идентификатор кодека : V_MPEG4/ISO/AVC
Продолжительность : 1 ч. 27 м.
Битрейт : 17,2 Мбит/сек
Ширина : 1920 пикселей
Высота : 1600 пикселей
Соотношение сторон : 1,200
Частота кадров : 23,976 кадра/сек
Цветовое пространство : YUV
Субдискретизация насыщенности : 4:2:0
Битовая глубина : 8 бит
Тип развёртки : Прогрессивная
Бит/(Пиксели*Кадры) : 0.234
Размер потока : 10,6 Гбайт (92%)
Заголовок : Rip by Dag13
Библиотека кодирования : x264 core 120 r2145 748fe16
Настройки программы : cabac=1 / ref=4 / deblock=1:-3:-3 / analyse=0x3:0x113 / me=umh / subme=9 / psy=1 / psy_rd=1.00:0.00 / mixed_ref=1 / me_range=16 / chroma_me=1 / trellis=2 / 8x8dct=1 / cqm=0 / deadzone=21,11 / fast_pskip=1 / chroma_qp_offset=-2 / threads=9 / sliced_threads=0 / nr=0 / decimate=1 / interlaced=0 / bluray_compat=0 / constrained_intra=0 / bframes=6 / b_pyramid=2 / b_adapt=2 / b_bias=0 / direct=3 / weightb=1 / open_gop=0 / weightp=2 / keyint=250 / keyint_min=23 / scenecut=40 / intra_refresh=0 / rc_lookahead=60 / rc=crf / mbtree=1 / crf=18.0 / qcomp=0.60 / qpmin=1 / qpmax=69 / qpstep=4 / ip_ratio=1.40 / aq=1:1.00
Язык : English
Default : Нет
Forced : Нет
Аудио #1
Идентификатор : 2
Формат : AC-3
Формат/Информация : Audio Coding 3
Расширение режима : CM (complete main)
Идентификатор кодека : A_AC3
Продолжительность : 1 ч. 27 м.
Вид битрейта : Постоянный
Битрейт : 448 Кбит/сек
Каналы : 6 каналов
Расположение каналов : Front: L C R, Side: L R, LFE
Частота : 48,0 КГц
Битовая глубина : 16 бит
Метод сжатия : С потерями
Размер потока : 282 Мбайт (2%)
Язык : Russian
Default : Да
Forced : Нет
Аудио #2
Идентификатор : 3
Формат : AC-3
Формат/Информация : Audio Coding 3
Расширение режима : CM (complete main)
Идентификатор кодека : A_AC3
Продолжительность : 1 ч. 27 м.
Вид битрейта : Постоянный
Битрейт : 640 Кбит/сек
Каналы : 6 каналов
Расположение каналов : Front: L C R, Side: L R, LFE
Частота : 48,0 КГц
Битовая глубина : 16 бит
Метод сжатия : С потерями
Размер потока : 403 Мбайт (3%)
Язык : English
Default : Нет
Forced : Нет
На встроенных ТВ-плейерах показывать НЕ будет!!!
Остальные раздачи этого фильма (4)
Благодарности релизеру (24)

Торрент:

Статус:

Размер:

Зарегистрирован   [ 2013-05-17 11:14 ]

проверено

11.49 GB

 
 Мнение о фильме (193)

1, 2, 3, 4, 5, 6, 7, 8, 9, 10  След.






Сам фильмец неплох. Веселенький такой на разок. А вот объем я что-то не воспринял. Досматривал в 2D. Надо будет пересмотреть CROP by Dag13 и понять, что там с объемом.
 

3D неплохое. Даже можно сказать - на высоте.
 

Спасибо. Смотреть можно.Будем набирать рейтинг.
 

Посмотрел. 3D неплохое, хотя и неровное - в одних сценах очень хорошее, в других - явно виден плоский задник.Фильм намного лучше будет смотреться на экране большой площади, поэтому фора у владельцев проекторов. Вылеты есть. Сюжет мог бы быть и получше, сами Гензель и Гретель уж слишком явно косят под Ван Хельсинга из соответствующего фильма. А вот ведьмы, шериф и тролль понравились! Релизеру большое спасибо, особенно за оперативность.
 

фильм понравился.да и 3д неплохое
 

релизеру респект!!!3 д в норме да и фильм так...забавный!
 

ФИЛЬМ неплохой, нам понравился, 3д хорошее, даже несколько вылетов присутствует, только сюжет немного скучноват. Спасибо.
 
девочка на облаке Профиль 18-Май-2013 09:11

а как звук??
 

фильм конечно впечатлил -ожидал худшего 3d норм глубокое пару раз даже вылеты неплохие были смотрел на lg
 

Отличный фильм, отличная раздача, релизеру огромное спасибо. Скажите, а расширенная версия Вами не планируется?
 

о как))вот спасибо огромное!5 минут назад зарегестрировался и уже доволен поиском!не ожидал,а приятненько!еще раз спасибо всей команде админов!
 

Отличный фильм для своего жанра, и классное 3 Д
 

Щас заценим!
 

Не плохо.СПАСИБО!!!
 

Долго ждал этот фильм именно в 3d. Если честно был немного разочарован самим сюжетом. А качество 3d на крепкую 8.
 

Фильм понравился. 3D воспринимается нормально.
 

Хорошая сказка для детей, подумал я, пока не увидел сиськи. Значит хорошая сказка для всех :-) В 3Д куча вылетов, но иногда сцены выглядят сюрреалистично, явно перебор.
 

Спасибо, качество 3д хорошее. Фильм на раз :)
 

Спасибо!!Посмотрим. А как это получается,что у StarSranger и у Dag13 абсолютно едентичные отзывы?? :)
 

3D хорошее. Фильм средний.
 

Страница 1 из 10

1, 2, 3, 4, 5, 6, 7, 8, 9, 10  След.