Торренты   
 
 

 

Охотники на ведьм / Hansel & Gretel: Witch Hunters (Томми Виркола) [2013 г., BDrip, Half1080p, Anamorph OverUnder]

Рейтинг 3D:
570 голосов
8.0
Рейтинг фильма:
563 голосов
7.6
 
Вы должны быть авторизированы,
чтобы ставить оценки



Охотники на ведьм / Hansel & Gretel: Witch Hunters
«Новый поворот старой истории»
Год выпуска: 2013
Страна: США, Германия
Жанр: ужасы, фэнтези, боевик
Продолжительность: 01:27:56
Перевод: Профессиональный (дублированный)
Режиссер: Томми Виркола
Сценарий: Томми Виркола
Продюсер: Уилл Феррелл, Бо Флинн, Крис Хенчи
Оператор: Майкл Бонвилейн
Композитор: Этли Орварссон
Художник: Стивен Скотт, Стефан О. Гесслер, Аня Мюллер
Монтаж: Джим Пейдж
В ролях: Джереми Реннер, Джемма Артертон, Фамке Янссен, Пихла Виитала, Дерек Мирс, Робин Аткин Даунс, Ингрид Болсай Бердал, Джоэнна Кулиг, Томас Манн, Петер Стормаре
Описание: Едва не погибнув в лапах ужасной ведьмы, Гензель и Гретель стали только сильнее. Одержимые местью, они ведут отчаянную борьбу со злом, даже не подозревая, что их поджидает нечто куда более опасное… собственное прошлое…
Качество: BDrip by StarStranger
Контейнер: MKV
Формат 3D: Anamorph OverUnder / Вертикальная анаморфная стереопара
Порядок ракурсов: левый ракурс первый
Видео кодек: x264
Аудио кодек: AC3
Видео: AVC, High@L4.1, 1920х1080, 23,976 кадра/сек, 8614 Кбит/сек
Аудио:
Rus, AC-3, 6 каналов, 640 Кбит/сек, 48,0 КГц
Eng, AC-3, 6 каналов, 640 Кбит/сек, 48,0 КГц

Скриншоты

Media Info

Код:
Общее
Уникальный идентификатор                 : 200732438844616310086316052423030755122 (0x9703A956A080E2DE85202E70AE7E4F32)
Полное имя                               : H:\Hansel&Gretel.WitchHunters.3D.2012.BD3DRip.Half.OU.x264.AC3.3D-RuGroup.mkv
Формат                                   : Matroska
Версия формата                           : Version 2
Размер файла                             : 6,20 Гбайт
Продолжительность                        : 1 ч. 27 м.
Общий поток                              : 10,1 Мбит/сек
Название фильма                          : Hansel & Gretel: Witch Hunters (2013) 3D release 3D-RuGroup rip by StarStranger aka itsamna
Дата кодирования                         : UTC 2013-05-17 15:42:14
Программа кодирования                    : mkvmerge v3.4.0 ('Rapunzel') сборка от May 15 2010 09:38:20
Библиотека кодирования                   : libebml v0.8.0 + libmatroska v0.9.0
Видео
Идентификатор                            : 1
Формат                                   : AVC
Формат/Информация                        : Advanced Video Codec
Профиль формата                          : High@L4.1
Параметр CABAC формата                   : Да
Параметр ReFrames формата                : 4 кадра
Идентификатор кодека                     : V_MPEG4/ISO/AVC
Продолжительность                        : 1 ч. 27 м.
Битрейт                                  : 8614 Кбит/сек
Ширина                                   : 1920 пикселей
Высота                                   : 1080 пикселей
Соотношение сторон                       : 16:9
Режим частоты кадров                     : Постоянный
Частота кадров                           : 23,976 кадра/сек
Цветовое пространство                    : YUV
Субдискретизация насыщенности            : 4:2:0
Битовая глубина                          : 8 бит
Тип развёртки                            : Прогрессивная
Бит/(Пиксели*Кадры)                      : 0.173
Размер потока                            : 5,29 Гбайт (85%)
Библиотека кодирования                   : x264 core 130 r2273 b3065e6
Настройки программы                      : cabac=1 / ref=4 / deblock=1:-2:-2 / analyse=0x3:0x133 / me=umh / subme=9 / psy=1 / psy_rd=1.00:0.15 / mixed_ref=1 / me_range=32 / chroma_me=1 / trellis=2 / 8x8dct=1 / cqm=0 / deadzone=21,11 / fast_pskip=0 / chroma_qp_offset=-3 / threads=12 / lookahead_threads=2 / sliced_threads=0 / nr=0 / decimate=1 / interlaced=0 / bluray_compat=0 / constrained_intra=0 / bframes=7 / b_pyramid=2 / b_adapt=2 / b_bias=0 / direct=3 / weightb=1 / open_gop=0 / weightp=2 / keyint=250 / keyint_min=23 / scenecut=40 / intra_refresh=0 / rc_lookahead=60 / rc=crf / mbtree=1 / crf=18.0 / qcomp=0.60 / qpmin=0 / qpmax=69 / qpstep=4 / vbv_maxrate=50000 / vbv_bufsize=62500 / crf_max=0.0 / nal_hrd=none / ip_ratio=1.40 / aq=1:0.90
Default                                  : Да
Forced                                   : Нет
Аудио #1
Идентификатор                            : 2
Формат                                   : AC-3
Формат/Информация                        : Audio Coding 3
Расширение режима                        : CM (complete main)
Параметр Endianness формата              : Big
Идентификатор кодека                     : A_AC3
Продолжительность                        : 1 ч. 27 м.
Вид битрейта                             : Постоянный
Битрейт                                  : 640 Кбит/сек
Каналы                                   : 6 каналов
Расположение каналов                     : Front: L C R, Side: L R, LFE
Частота                                  : 48,0 КГц
Битовая глубина                          : 16 бит
Метод сжатия                             : С потерями
Размер потока                            : 403 Мбайт (6%)
Язык                                     : Russian
Default                                  : Да
Forced                                   : Нет
Аудио #2
Идентификатор                            : 3
Формат                                   : AC-3
Формат/Информация                        : Audio Coding 3
Расширение режима                        : CM (complete main)
Параметр Endianness формата              : Big
Идентификатор кодека                     : A_AC3
Продолжительность                        : 1 ч. 27 м.
Вид битрейта                             : Постоянный
Битрейт                                  : 640 Кбит/сек
Каналы                                   : 6 каналов
Расположение каналов                     : Front: L C R, Side: L R, LFE
Частота                                  : 48,0 КГц
Битовая глубина                          : 16 бит
Метод сжатия                             : С потерями
Размер потока                            : 403 Мбайт (6%)
Язык                                     : English
Default                                  : Нет
Forced                                   : Нет
Меню
00:00:00.000                             : :01
00:08:56.828                             : :02
00:15:57.790                             : :03
00:24:07.112                             : :04
00:32:17.936                             : :05
00:40:12.869                             : :06
00:46:45.636                             : :07
00:52:22.097                             : :08
01:00:20.033                             : :09
01:05:05.652                             : :10
01:12:49.657                             : :11
01:19:01.820                             : :12
--Релиз группы:

Проверено на встроенном плейере ТВ LG 42LW4500
--
Остальные раздачи этого фильма (4)
Благодарности релизеру (65)

Торрент:

Статус:

Размер:

Зарегистрирован   [ 2013-05-17 20:07 ]

проверено

6.2 GB

 
 Мнение о фильме (193)

Пред.  1, 2, 3, 4, 5, 6, 7, 8, 9, 10  След.






Фильм супер все понравилось
 

качество 3д нормально. Фильм - смотреть от нечего делать.
 

VictorProzorovskiy, в этом полностью с тобой согласен)) Сначала подумал , о сказка для детей, но после просмотра, точно решил своим детям не показывать))))
 

Фильм супер народ смотреть всем)! 3D супер звук тоже! короче не пожалеете!)
 

3D фальшивое, очередная конвертация. В остальном всё нормально.
 

super na tv LG pervii raz takoe 3d katchestvo
 

Звук очень даже приличный. 3Д очень хорошее, несколько раз вздрагивал и уклонялся от летящих предметов. Фильм неплохой, в 3Д смотреть можно (и нужно), в 2Д нет.
 

Вылеты есть, но само 3D не самое лучшее. Ожидал большего.
 

Фильм в жанре неплохих комиксов.На один раз.Не более.3D на троечку.В некоторых местах дальний план(кусочками) вылезал вперед.
 

Мне лично очень понравился фильм,и 3D и сам фильм я считаю на уровне
 

Гарнне кіно і 3D на висоті.Є непогані вильоти.
 

В общем всё очень даже неплохо,смотрел на Philips 37/6007 - 3d и звук отличные,но телевизор не определяет автоматом 3d,нужно переключать вручную. Огромное спасибо релизеру.
 

Фильм не плохой! Качество хорошее! На телеке Philips 6000 series Smart LED TV 42PFL6007T показывает без проблем с флэшки!
 

Очень приличное качество 3D, но сам фильм очень напоминает Ван Хельсинга.
 

фильм достойный, качество 3D отличное, телевизор Samsung 46' 7000 серия
 

Нормуль кинцо. Разок глянул с удовольствием
 

Мне фильм понравился!
 
Александр Алексеев Профиль 25-Май-2013 14:59

В принципе фильм нормальный. 3D тоже на должном уровне. Я думаю, что любителям Ван Хельсинга понравится. Второй раз может и не захочется смотреть, но первый раз посмотрел с интересом.
 

смотрел на 46 диагонали - впечатлило. Фильм конечно сказка но спецэффекты хорошие, 3Д и обьем на высоте! релизеру огромное спасибо!
 

3D хорошего качества, но очень мало и фильм посмотреть интересно.
 

Страница 4 из 10

Пред.  1, 2, 3, 4, 5, 6, 7, 8, 9, 10  След.