Торренты   
 
 

 

Охотники на ведьм / Hansel & Gretel: Witch Hunters (Томми Виркола) [2013, BDrip, half1080p, Anamorph SideBySide]

Рейтинг 3D:
570 голосов
8.0
Рейтинг фильма:
563 голосов
7.6
 
Вы должны быть авторизированы,
чтобы ставить оценки


Охотники на ведьм / Hansel & Gretel: Witch Hunters
Год выпуска: 2013
Страна: США, Германия
Жанр: ужасы, фэнтези, боевик
Продолжительность: 01:27:56
Перевод: Профессиональный (полное дублирование)
Субтитры: есть
Режиссер: Томми Виркола
В ролях: Джереми Реннер, Джемма Артертон, Фамке Янссен, Пихла Виитала, Дерек Мирс, Робин Аткин Даунс, Ингрид Болсай Бердал, Джоэнна Кулиг, Томас Манн, Петер Стормаре
Описание:
Едва не погибнув в лапах ужасной ведьмы, Гензель и Гретель стали только сильнее. Одержимые местью, они ведут отчаянную борьбу со злом, даже не подозревая, что их поджидает нечто куда более опасное… собственное прошлое…
Качество: BDrip by Alexman©
Формат 3D: Anamorph SideBySide
Порядок ракурсов: Левый ракурс первый
Видео: AVC / 23,976 fps / 1920х1080p / 10.4 Mbps
Аудио 1: Русский дублированный / AC3 / 48 KHz / 5.1 ch / 640 Kbps
Аудио 2: Английский оригинальный / AC3 / 48 KHz / 5.1 ch / 640 Kbps
Субтитры: русские / английские, полные, вшитые .srt

MediaInfo

General
Unique ID : 206618278776110642968012347806973366947 (0x9B713BA6E373705D8D1F67ED05C712A3)
Complete name : Hansel & Gretel Witch Hunters Theatrical Cut [Охотники на ведьм [Театральная версия]] (2013) DUB hSbS 1080p by Alexman©.mkv
Format : Matroska
Format version : Version 4 / Version 2
File size : 7.30 GiB
Duration : 1h 27mn
Overall bit rate : 11.9 Mbps
Movie name : Hansel & Gretel Witch Hunters Theatrical Cut [Охотники на ведьм [Театральная версия]] (2013) DUB hSbS 1080p by Alexman©
Encoded date : UTC 2013-05-20 11:22:40
Writing application : mkvmerge v6.2.0 ('Promised Land') built on Apr 28 2013 12:22:01
Writing library : libebml v1.3.0 + libmatroska v1.4.0
Video
ID : 1
Format : AVC
Format/Info : Advanced Video Codec
Format profile : High@L4.1
Format settings, CABAC : Yes
Format settings, ReFrames : 4 frames
Codec ID : V_MPEG4/ISO/AVC
Duration : 1h 27mn
Bit rate : 10.4 Mbps
Width : 1 920 pixels
Height : 1 080 pixels
Display aspect ratio : 16:9
Frame rate mode : Constant
Frame rate : 23.976 fps
Color space : YUV
Chroma subsampling : 4:2:0
Bit depth : 8 bits
Scan type : Progressive
Bits/(Pixel*Frame) : 0.209
Stream size : 6.37 GiB (87%)
Title : Hansel & Gretel: Witch Hunters
Writing library : x264 core 129 r2245 bc13772
Encoding settings : cabac=1 / ref=4 / deblock=1:-3:-3 / analyse=0x3:0x113 / me=umh / subme=9 / psy=1 / psy_rd=1.00:0.15 / mixed_ref=1 / me_range=32 / chroma_me=1 / trellis=2 / 8x8dct=1 / cqm=0 / deadzone=21,11 / fast_pskip=1 / chroma_qp_offset=-3 / threads=6 / lookahead_threads=1 / sliced_threads=0 / nr=0 / decimate=1 / interlaced=0 / bluray_compat=0 / constrained_intra=0 / bframes=4 / b_pyramid=2 / b_adapt=2 / b_bias=0 / direct=3 / weightb=1 / open_gop=0 / weightp=2 / keyint=250 / keyint_min=23 / scenecut=40 / intra_refresh=0 / rc_lookahead=60 / rc=crf / mbtree=1 / crf=17.0 / qcomp=0.60 / qpmin=0 / qpmax=69 / qpstep=4 / vbv_maxrate=40000 / vbv_bufsize=40000 / crf_max=0.0 / nal_hrd=none / ip_ratio=1.40 / aq=1:0.70
Language : English
Default : Yes
Forced : No
Audio #1
ID : 2
Format : AC-3
Format/Info : Audio Coding 3
Mode extension : CM (complete main)
Format settings, Endianness : Big
Codec ID : A_AC3
Duration : 1h 27mn
Bit rate mode : Constant
Bit rate : 640 Kbps
Channel(s) : 6 channels
Channel positions : Front: L C R, Side: L R, LFE
Sampling rate : 48.0 KHz
Bit depth : 16 bits
Compression mode : Lossy
Stream size : 403 MiB (5%)
Title : Русский дублированный
Language : Russian
Default : Yes
Forced : Yes
Audio #2
ID : 3
Format : AC-3
Format/Info : Audio Coding 3
Mode extension : CM (complete main)
Format settings, Endianness : Big
Codec ID : A_AC3
Duration : 1h 27mn
Bit rate mode : Constant
Bit rate : 640 Kbps
Channel(s) : 6 channels
Channel positions : Front: L C R, Side: L R, LFE
Sampling rate : 48.0 KHz
Bit depth : 16 bits
Compression mode : Lossy
Stream size : 403 MiB (5%)
Title : English original
Language : English
Default : No
Forced : No
Text #1
ID : 4
Format : UTF-8
Codec ID : S_TEXT/UTF8
Codec ID/Info : UTF-8 Plain Text
Title : Русские полные
Language : Russian
Default : No
Forced : No
Text #2
ID : 5
Format : UTF-8
Codec ID : S_TEXT/UTF8
Codec ID/Info : UTF-8 Plain Text
Title : English full
Language : English
Default : No
Forced : No

Скриншоты




Анимированные скриншоты для оценки 3Д-эффекта




Проверено на ТВ Samsung 40C7000 и Samsung 46D7000
Остальные раздачи этого фильма (4)
Благодарности релизеру (44)

Торрент:

Статус:

Размер:

Зарегистрирован   [ 2013-05-20 16:09 ]

проверено

7.3 GB

 
 Мнение о фильме (193)

1, 2, 3, 4, 5, 6, 7, 8, 9, 10  След.






Сам фильмец неплох. Веселенький такой на разок. А вот объем я что-то не воспринял. Досматривал в 2D. Надо будет пересмотреть CROP by Dag13 и понять, что там с объемом.
 

3D неплохое. Даже можно сказать - на высоте.
 

Спасибо. Смотреть можно.Будем набирать рейтинг.
 

Посмотрел. 3D неплохое, хотя и неровное - в одних сценах очень хорошее, в других - явно виден плоский задник.Фильм намного лучше будет смотреться на экране большой площади, поэтому фора у владельцев проекторов. Вылеты есть. Сюжет мог бы быть и получше, сами Гензель и Гретель уж слишком явно косят под Ван Хельсинга из соответствующего фильма. А вот ведьмы, шериф и тролль понравились! Релизеру большое спасибо, особенно за оперативность.
 

фильм понравился.да и 3д неплохое
 

релизеру респект!!!3 д в норме да и фильм так...забавный!
 

ФИЛЬМ неплохой, нам понравился, 3д хорошее, даже несколько вылетов присутствует, только сюжет немного скучноват. Спасибо.
 
девочка на облаке Профиль 18-Май-2013 09:11

а как звук??
 

фильм конечно впечатлил -ожидал худшего 3d норм глубокое пару раз даже вылеты неплохие были смотрел на lg
 

Отличный фильм, отличная раздача, релизеру огромное спасибо. Скажите, а расширенная версия Вами не планируется?
 

о как))вот спасибо огромное!5 минут назад зарегестрировался и уже доволен поиском!не ожидал,а приятненько!еще раз спасибо всей команде админов!
 

Отличный фильм для своего жанра, и классное 3 Д
 

Щас заценим!
 

Не плохо.СПАСИБО!!!
 

Долго ждал этот фильм именно в 3d. Если честно был немного разочарован самим сюжетом. А качество 3d на крепкую 8.
 

Фильм понравился. 3D воспринимается нормально.
 

Хорошая сказка для детей, подумал я, пока не увидел сиськи. Значит хорошая сказка для всех :-) В 3Д куча вылетов, но иногда сцены выглядят сюрреалистично, явно перебор.
 

Спасибо, качество 3д хорошее. Фильм на раз :)
 

Спасибо!!Посмотрим. А как это получается,что у StarSranger и у Dag13 абсолютно едентичные отзывы?? :)
 

3D хорошее. Фильм средний.
 

Страница 1 из 10

1, 2, 3, 4, 5, 6, 7, 8, 9, 10  След.