Торренты   
 
 

 

Искусство полета / The Art of Flight [2011, BDRip, half1080p, Anamorph OverUnder] VO - В. Дворцов

Рейтинг 3D:
34 голосов
7.4
Рейтинг фильма:
32 голосов
7.4
 
Вы должны быть авторизированы,
чтобы ставить оценки


Искусство полета
The Art of Flight
-"Фильм посвящен всем, кто погиб, делая то, что любил..." Год выпуска: 2011
Страна: США (Red Bull Media House, Quicksilver, Venture 3D, Brain Farm Digital Cinema)
Жанр: Документальный, Спорт, Приключения, Видовой
Продолжительность: 01:20:40
Перевод: Одноголосый закадровый (Василий Дворцов)
Режиссер: Курт Морган / Curt Morgan
В фильме снимались: Трэвис Райс, Джон Джексон, Марк Ландвик, Скотти Лаго, Джейк Бловелт, Николас Мюллер, Пэт Мур, Дэвид Каррэр Поршерон
Описание: Наступает новое поколение экстремальных спортивных фильмов - Red Bull Media House в сотрудничестве с Brain Farm Digital Cinema - они представляют фильм Курта Моргана "Искусство Полета". Два года съёмок дают возможность культовому сноубордисту Трэвису Райсу и его друзьям по-новому определить что возможно в горах. Окунитесь в кинематографический опыт и арсенал технологий кинопроизводства Brain Farm в съёмках культуры, дикой природы и живописных ландшафтов, встречающихся райдерам в пути. Присоединяйтесь в этом путешествии к создателям "That's It, That's All", полностью переписывающим формулу кино для активных видов спорта в их новом фильме «Искусство полета».
Доп. информация: ИМХО: Невероятно красивый фильм - не только сногсшибательными спусками фрирайдеров, но и массой красивейших пейзажей, высокотворческой работой операторов и качественной работой стереографов. При сравнительно невысоком бюджете - во всём высокопрофессиональная работа! Будем ждать новых 3Д фильмов от Ред Булл...-Премьера: 8 сентября 2011 (21 февраля 2013)
Бюджет: $2 000 000

. .
За исходный BD 3D спасибо .и 3D4ALL!-Качество: BDRip (by Ash61)
Контейнер: MKV
Формат 3D: Anamorph OverUnder / Вертикальная анаморфная стереопара
Порядок ракурсов: левый ракурс первый-Видео: AVC / 23,976 fps / 1920х1080p / 16.4 Mbps
Аудио:
#1 - Русский / AC3 / 48 KHz / 2.0 ch / 320 Kbps (VO - Василий Дворцов)
#2 - Английский / AC3 / 48 KHz / 5.1 ch / 640 Kbps (Original - BD 3D)
Субтитры: Русские внешние (SRT UTF-8) (по таймингам отредактированы под BD 3D рипы) (Включены по умолчанию. Чтобы отключить, либо переименуйте как нравится, либо переместите в другую папку, либо просто удалите файл).

MediaInfo

General
Unique ID : 245375458037398892483528941478662224392 (0xB899981F24775A92BD7BBD2BCBCDBA08)
Complete name : G:\Downloads\TheArtOfFlight(3D)2011.halfOU(Ash61)VO-V.Dvorcov\TheArtOfFlight(3D)2011.halfOU(Ash61)VO-V.Dvorcov.mkv
Format : Matroska
Format version : Version 2
File size : 9.97 GiB
Duration : 1h 20mn
Overall bit rate : 17.7 Mbps
Movie name : Искусство полета / The Art of Flight (3D) 2011
Encoded date : UTC 2013-05-20 14:35:42
Writing application : mkvmerge v5.8.0 ('No Sleep / Pillow') built on Sep 2 2012 15:37:04
Writing library : libebml v1.2.3 + libmatroska v1.3.0
Video
ID : 1
Format : AVC
Format/Info : Advanced Video Codec
Format profile : High@L4.1
Format settings, CABAC : Yes
Format settings, ReFrames : 4 frames
Codec ID : V_MPEG4/ISO/AVC
Bit rate : 16.4 Mbps
Width : 1 920 pixels
Height : 1 080 pixels
Display aspect ratio : 16:9
Frame rate mode : Variable
Original frame rate : 23.976 fps
Color space : YUV
Chroma subsampling : 4:2:0
Bit depth : 8 bits
Scan type : Progressive
Title : BDRip by Ash61
Writing library : x264 core 129 r2245 bc13772
Encoding settings : cabac=1 / ref=4 / deblock=1:-3:-3 / analyse=0x3:0x113 / me=umh / subme=9 / psy=1 / psy_rd=1.00:0.15 / mixed_ref=1 / me_range=32 / chroma_me=1 / trellis=2 / 8x8dct=1 / cqm=0 / deadzone=21,11 / fast_pskip=1 / chroma_qp_offset=-3 / threads=12 / lookahead_threads=2 / sliced_threads=0 / nr=0 / decimate=1 / interlaced=0 / bluray_compat=0 / constrained_intra=0 / bframes=8 / b_pyramid=2 / b_adapt=2 / b_bias=0 / direct=3 / weightb=1 / open_gop=0 / weightp=2 / keyint=250 / keyint_min=23 / scenecut=40 / intra_refresh=0 / rc_lookahead=60 / rc=crf / mbtree=1 / crf=17.0 / qcomp=0.70 / qpmin=0 / qpmax=69 / qpstep=4 / vbv_maxrate=40000 / vbv_bufsize=30000 / crf_max=0.0 / nal_hrd=none / frame-packing=4 / ip_ratio=1.40 / aq=1:0.70
Language : English
Default : Yes
Forced : No
Audio #1
ID : 2
Format : AC-3
Format/Info : Audio Coding 3
Mode extension : CM (complete main)
Format settings, Endianness : Big
Codec ID : A_AC3
Duration : 1h 20mn
Bit rate mode : Constant
Bit rate : 320 Kbps
Channel(s) : 2 channels
Channel positions : Front: L R
Sampling rate : 48.0 KHz
Bit depth : 16 bits
Compression mode : Lossy
Stream size : 185 MiB (2%)
Title : Одноголосый закадровый - Василий Дворцов
Language : Russian
Default : Yes
Forced : Yes
Audio #2
ID : 3
Format : AC-3
Format/Info : Audio Coding 3
Mode extension : CM (complete main)
Format settings, Endianness : Big
Codec ID : A_AC3
Duration : 1h 20mn
Bit rate mode : Constant
Bit rate : 640 Kbps
Channel(s) : 6 channels
Channel positions : Front: L C R, Side: L R, LFE
Sampling rate : 48.0 KHz
Bit depth : 16 bits
Compression mode : Lossy
Stream size : 369 MiB (4%)
Title : Original - BD 3D
Language : English
Default : No
Forced : No
Menu
00:00:00.000 : :1
00:06:05.824 : :2
00:11:23.892 : :3
00:14:09.432 : :4
00:20:28.769 : :5
00:26:26.126 : :6
00:33:41.728 : :7
00:38:44.155 : :8
00:42:43.770 : :9
00:45:54.961 : :10
00:49:42.354 : :11
00:54:01.989 : :12
01:00:42.305 : :13
01:05:26.339 : :14
01:10:18.881 : :15
01:12:20.920 : :16

Для оценки 3д - Анимированные скрины





















Треклист музыки в фильме (спасибо DeTorquemada)

01. Defrag - Element L
02. M83 - Outro
03. Hendrickson/Dick/Harry – Before The Storm
04. Deadmau5 - Ghosts 'n' Stuff (Nero Remix)
05. Oswin Macintosh – Passion Victim
06. The Naked And Famous - No Way
07. Apparat - Ash/Black Veil
08. Klaus Badelt - Nowhere To Run
09. Blockhead - Sunday Seance (Loka Remix)
10. The Album Leaf - Another Day
11. The Naked And Famous - Young Blood
12. Mel Wesson – Motional Resque Pulse
13. Mel Wesson – Stark Light
14. Sigur Ros - Sigur 6 (Untitled)
15. M83 - Intro
16. Hum - Iron Clad Lou
17. The Black Angels - Young Men Dead
18. M83 - My Tears Are Becoming A Sea
19. Okkervil River - Westfall
20. We Are Augustines - Chapel Song
Благодарности релизеру (39)

Торрент:

Статус:

Размер:

Зарегистрирован   [ 2013-05-21 18:37 ]

проверено

9.97 GB

 
 Мнение о фильме (7)





Безумный фильм, невероятная красота, безумные съёмки, безумные люди, качественное 3d. Всем советую.
 

Очень красивый фильм!!!Спасибо,ash61!!!
 

было бы луяше,если основной ракурс не с вертолёта бы сделали,а с камеры на шлеме.Слишком много высоких съёмок,эффект погружения получается только когда кадры от первого лица,которых очень мало:(
 

Красотища! От видов дух захватывает. Рекомендую!
 

Технически фильм снят великолепно. Красивейшая операторская работа. 3D присутствует, но мне его не хватило. Правда, и фильм снят не для демонстрации возможностей 3D, а для демонстрации возможностей человека!
 

Фильм потряс до глубины души. Ничего подобного не видел раньше. Здесь узнаешь о возможностях человека и это не фантастика. Великолепная работа операторов, от увиденного захватывает дух. Спасибо создателям фильма. Надеюсь увидеть что-то подобное в других фильмах.
 

Мне понравилось. Спасибо!