Торренты   
 
 

 

Всемирное Природное Наследие ЮНЕСКО: Национальный Парк Йеллоустоун / World Natural Heritage: Yellowstone National Park (Норберт Вандер) [2012 г., Anamorph OverUnder]

Рейтинг 3D:
8 голосов
9.0
Рейтинг фильма:
8 голосов
8.6
 
Вы должны быть авторизированы,
чтобы ставить оценки


Всемирное Природное Наследие ЮНЕСКО: Национальный Парк Йеллоустоун
World Natural Heritage: Yellowstone National Park
Год выпуска: 2012
Страна: Германия | KSM
Жанр: документальный
Продолжительность: 00:51:41
Перевод: Отсутствует
Режиссер: Норберт Вандер
Описание: Национальный парк Йеллоустоун-это старейший Национальный парк в мире. Он является домом для пейзаж с самой высокой в мире концентрацией гейзеров и термальных источников, а также славится своей стада зубров, которые бродят по плато Северо-шотландского нагорья.
Стада часто сопровождаются волки, которые были вновь введены в Йеллоустонском Национальном парке около десяти лет назад. Черные медведи, бобры и wapitis также населяющих парк, который местные жители ласково называют “Йеллоустоун”.
Парк по праву признана ЮНЕСКО объектом Всемирного Природного Наследия ЮНЕСКО. Ведь, помимо своей впечатляющей флоры и фауны национального парка дает нам возможность взглянуть на историю Земли корни. Он переносит посетителей в момент, когда вулканов и силы Матери-Природы как только формы нашего мира. Эти силы могут быть испытал, когда огромные фонтаны воды стрелять высоко в небо и чистой энергии из недр Земли находит отдушину.
Всемирного Природного Наследия Национального парка Йеллоустоун - фильм, в котором природа играет ведущую роль, тем самым объясняя, почему это имеет смысл, как сохранить и защитить его.
Формат 3D: Anamorph OverUnder
Видео: AVC / 23,976 fps / 1920х1080p / 16,6 Мbps
Аудио: Английский / AC3 / 48 KHz / 5.1 ch / 640 Kbps

Скриншоты

Media Info

Общее
Уникальный идентификатор : 248131694231196118987294393351310223262 (0xBAAC6D0ECDCD5E7E8D15A8989161279E)
Полное имя : H:\WorldNaturalHeritage.YellowstoneNationalPark.3D.2012.BD3DRip.Half.OU.x264.AC3.3D-RuGroup.mkv
Формат : Matroska
Версия формата : Version 2
Размер файла : 6,34 Гбайт
Продолжительность : 51 м.
Общий поток : 17,6 Мбит/сек
Название фильма : World Natural Heritage: Yellowstone National Park 3D release 3D-RuGroup rip by StarStranger
Дата кодирования : UTC 2013-05-21 18:48:37
Программа кодирования : mkvmerge v3.4.0 ('Rapunzel') сборка от May 15 2010 09:38:20
Библиотека кодирования : libebml v0.8.0 + libmatroska v0.9.0
Видео
Идентификатор : 1
Формат : AVC
Формат/Информация : Advanced Video Codec
Профиль формата : High@L4.1
Параметр CABAC формата : Да
Параметр ReFrames формата : 4 кадра
Идентификатор кодека : V_MPEG4/ISO/AVC
Продолжительность : 51 м.
Битрейт : 16,6 Мбит/сек
Ширина : 1920 пикселей
Высота : 1080 пикселей
Соотношение сторон : 16:9
Режим частоты кадров : Постоянный
Частота кадров : 23,976 кадра/сек
Цветовое пространство : YUV
Субдискретизация насыщенности : 4:2:0
Битовая глубина : 8 бит
Тип развёртки : Прогрессивная
Бит/(Пиксели*Кадры) : 0.333
Размер потока : 5,98 Гбайт (94%)
Библиотека кодирования : x264 core 130 r2273 b3065e6
Настройки программы : cabac=1 / ref=4 / deblock=1:-2:-2 / analyse=0x3:0x133 / me=umh / subme=9 / psy=1 / psy_rd=1.00:0.15 / mixed_ref=1 / me_range=32 / chroma_me=1 / trellis=2 / 8x8dct=1 / cqm=0 / deadzone=21,11 / fast_pskip=0 / chroma_qp_offset=-3 / threads=12 / lookahead_threads=2 / sliced_threads=0 / nr=0 / decimate=1 / interlaced=0 / bluray_compat=0 / constrained_intra=0 / bframes=7 / b_pyramid=2 / b_adapt=2 / b_bias=0 / direct=3 / weightb=1 / open_gop=0 / weightp=2 / keyint=250 / keyint_min=23 / scenecut=40 / intra_refresh=0 / rc_lookahead=60 / rc=crf / mbtree=1 / crf=18.0 / qcomp=0.60 / qpmin=0 / qpmax=69 / qpstep=4 / vbv_maxrate=50000 / vbv_bufsize=62500 / crf_max=0.0 / nal_hrd=none / ip_ratio=1.40 / aq=1:0.90
Default : Да
Forced : Нет
Аудио
Идентификатор : 2
Формат : AC-3
Формат/Информация : Audio Coding 3
Расширение режима : CM (complete main)
Параметр Endianness формата : Big
Идентификатор кодека : A_AC3
Продолжительность : 51 м.
Вид битрейта : Постоянный
Битрейт : 640 Кбит/сек
Каналы : 6 каналов
Расположение каналов : Front: L C R, Side: L R, LFE
Частота : 48,0 КГц
Битовая глубина : 16 бит
Метод сжатия : С потерями
Размер потока : 237 Мбайт (4%)
Язык : English
Default : Да
Forced : Нет
Меню
00:00:00.000 : :1
00:06:13.206 : :2
00:13:16.963 : :3
00:19:28.834 : :4
00:22:25.386 : :5
00:28:07.644 : :6
00:36:49.707 : :7
00:43:16.219 : :8
Благодарности релизеру (23)

Торрент:

Статус:

Размер:

Зарегистрирован   [ 2013-05-22 20:09 ]

проверено

6.34 GB

 
 Мнение о фильме (5)





Красиво, душевно , отличное 3D . У KSM природу лучше получается снимать , чем подводные съёмки в мутной воде и с недостаточным освещением.
 

а на русском языке-можно?
 

посмотрю, но за описание низачот автоматом
 

Хорошо! но хотелось бы перевод на русском.
 

Есть ли надежда, что появится перевод?
Материал ведь интересный и 3D на уровне. Пожалуйста, сделайте, если можно!