Торренты   
 
 

 

Египет / Egypt [2012 г., Anamorph OverUnder]

Рейтинг 3D:
14 голосов
7.8
Рейтинг фильма:
15 голосов
7.7
 
Вы должны быть авторизированы,
чтобы ставить оценки


Египет / Egypt
Год выпуска: 2012
Страна: Германия | Ascot Elite Home Entertainment
Жанр: документальный
Продолжительность: 01:01:32
Перевод: Профессиональный (одноголосый)
Режиссер: Бенжамин Ичер, Тимо Дж. Мэйер
Описание: Цивилизация Древнего Египта насчитывает более 3000 лет. Дошедшие до наших дней уникальные памятники этой удивительной культуры полны тайн и загадок. Величественные пирамиды, обелиски, храмовые комплексы, украшенные сфинксами, барельефами и настенными росписями потрясают воображение.
Гробницы фараонов, мумии, и другие исторические артефакты позволят ощутить дыхание времени в уникальном 3D путешествии. Откройте для себя красоту и мощь древнего государства, раскинувшегося на бескрайних просторах золотой пустыни.
Формат 3D: Anamorph OverUnder
Видео: AVC / 23,976 fps / 1920х1080p / 10,1 Мbps
Аудио:
Русский / AC3 / 48 KHz / 5.1 ch / 640 Kbps
Английский / AC3 / 48 KHz / 5.1 ch / 640 Kbps

Скриншоты

Media Info

Общее
Уникальный идентификатор : 176515773016345979078915197387008833501 (0x84CBB387CCA442B0A032BA19C75EF7DD)
Полное имя : H:\Egypt.3D.2012.BD3DRip.Half.OU.x264.AC3.3D-RuGroup.mkv
Формат : Matroska
Версия формата : Version 2
Размер файла : 4,63 Гбайт
Продолжительность : 1 ч. 1 м.
Общий поток : 10,8 Мбит/сек
Название фильма : Egypt 3D release 3D-RuGroup rip by StarStranger
Дата кодирования : UTC 2013-05-23 13:54:16
Программа кодирования : mkvmerge v3.4.0 ('Rapunzel') сборка от May 15 2010 09:38:20
Библиотека кодирования : libebml v0.8.0 + libmatroska v0.9.0
Видео
Идентификатор : 1
Формат : AVC
Формат/Информация : Advanced Video Codec
Профиль формата : High@L4.1
Параметр CABAC формата : Да
Параметр ReFrames формата : 4 кадра
Идентификатор кодека : V_MPEG4/ISO/AVC
Продолжительность : 1 ч. 1 м.
Битрейт : 10,1 Мбит/сек
Ширина : 1920 пикселей
Высота : 1080 пикселей
Соотношение сторон : 16:9
Режим частоты кадров : Постоянный
Частота кадров : 23,976 кадра/сек
Цветовое пространство : YUV
Субдискретизация насыщенности : 4:2:0
Битовая глубина : 8 бит
Тип развёртки : Прогрессивная
Бит/(Пиксели*Кадры) : 0.203
Размер потока : 4,34 Гбайт (94%)
Библиотека кодирования : x264 core 130 r2273 b3065e6
Настройки программы : cabac=1 / ref=4 / deblock=1:-2:-2 / analyse=0x3:0x133 / me=umh / subme=9 / psy=1 / psy_rd=1.00:0.15 / mixed_ref=1 / me_range=32 / chroma_me=1 / trellis=2 / 8x8dct=1 / cqm=0 / deadzone=21,11 / fast_pskip=0 / chroma_qp_offset=-3 / threads=12 / lookahead_threads=2 / sliced_threads=0 / nr=0 / decimate=1 / interlaced=0 / bluray_compat=0 / constrained_intra=0 / bframes=7 / b_pyramid=2 / b_adapt=2 / b_bias=0 / direct=3 / weightb=1 / open_gop=0 / weightp=2 / keyint=250 / keyint_min=23 / scenecut=40 / intra_refresh=0 / rc_lookahead=60 / rc=crf / mbtree=1 / crf=18.0 / qcomp=0.60 / qpmin=0 / qpmax=69 / qpstep=4 / vbv_maxrate=50000 / vbv_bufsize=62500 / crf_max=0.0 / nal_hrd=none / ip_ratio=1.40 / aq=1:0.90
Default : Да
Forced : Нет
Аудио
Идентификатор : 2
Формат : AC-3
Формат/Информация : Audio Coding 3
Расширение режима : CM (complete main)
Параметр Endianness формата : Big
Идентификатор кодека : A_AC3
Продолжительность : 1 ч. 1 м.
Вид битрейта : Постоянный
Битрейт : 448 Кбит/сек
Каналы : 2 канала
Расположение каналов : Front: L R
Частота : 48,0 КГц
Битовая глубина : 16 бит
Метод сжатия : С потерями
Размер потока : 197 Мбайт (4%)
Default : Да
Forced : Нет
Меню
00:00:00.000 : :1
00:10:00.600 : :2
00:20:01.200 : :3
00:30:01.800 : :4
00:40:02.400 : :5
00:50:03.000 : :6
--Релиз группы:

Проверено на встроенном плейере ТВ LG 42LW4500
--25.08.2013 - Релиз обновлён - добавлена русская одноголосая дорожка.
Желающие, скачайте заново торрент-файл.
Благодарности релизеру (28)

Торрент:

Статус:

Размер:

Зарегистрирован   [ 2013-08-25 18:55 ]

проверено

4.9 GB