Торренты   
 
 

 

Возвращение Буратино (Екатерина Михайлова) [2013 г., Anamorph OverUnder]

Рейтинг 3D:
25 голосов
2.3
Рейтинг фильма:
27 голосов
2.7
 
Вы должны быть авторизированы,
чтобы ставить оценки



Возвращение Буратино
Год выпуска: 2013
Страна: Россия
Жанр: мультфильм, приключения, семейный
Продолжительность: 01:16:36
Перевод: Не требуется
Режиссер: Екатерина Михайлова
Роли озвучивали: Олег Табаков, Оскар Кучера, Нонна Гришаева, Полина Кутепова, Лидия Аветисян, Ольга Прокофьева, Борис Смолкин, Леонид Якубович, Мадлен Джабраилова, Елена Симонова
Описание: В современной нам Москве Карабас-Барабас, сменив имидж и имя, открывает фабрику-конвейер по производству игрушек. В цехах высотного здания из «сырья» - старых игрушек всех сортов и форм, - производятся две «инновационные» унифицированные модели: робот Зубастик для мальчиков и кукла Гламушка для девочек. Господин Баскара - так сейчас следует называть Карабаса, - уверен, что будущее (и огромные прибыли!) - именно за его моделями.
Качество: BDrip by StarStranger
Контейнер: MKV
Формат 3D: Anamorph OverUnder / Вертикальная анаморфная стереопара
Порядок ракурсов: левый ракурс первый
Видео кодек: x264
Аудио кодек: AC3
Видео: AVC, High@L4.1, 1920х1080р, 23,976 кадра/сек, 7592 Кбит/сек
Аудио: Rus, AC-3, 6 каналов, 640 Кбит/сек, 48,0 КГц

Скриншоты

Media Info

Код:
Общее
Уникальный идентификатор                 : 170977709768608516165452964522837289955 (0x80A11BEE692F6046AB43AC18A5862BE3)
Полное имя                               : H:\Buratino.3D.2013.BD3DRip.Half.OU.x264.AC3.3D-RuGroup.mkv
Формат                                   : Matroska
Версия формата                           : Version 2
Размер файла                             : 4,49 Гбайт
Продолжительность                        : 1 ч. 16 м.
Общий поток                              : 8399 Кбит/сек
Название фильма                          : Возвращение Буратино (2013) 3D release 3D-RuGroup rip by StarStranger aka itsamna
Дата кодирования                         : UTC 2013-05-23 17:58:03
Программа кодирования                    : mkvmerge v3.4.0 ('Rapunzel') сборка от May 15 2010 09:38:20
Библиотека кодирования                   : libebml v0.8.0 + libmatroska v0.9.0
Видео
Идентификатор                            : 1
Формат                                   : AVC
Формат/Информация                        : Advanced Video Codec
Профиль формата                          : High@L4.1
Параметр CABAC формата                   : Да
Параметр ReFrames формата                : 4 кадра
Идентификатор кодека                     : V_MPEG4/ISO/AVC
Продолжительность                        : 1 ч. 16 м.
Битрейт                                  : 7592 Кбит/сек
Ширина                                   : 1920 пикселей
Высота                                   : 1080 пикселей
Соотношение сторон                       : 16:9
Режим частоты кадров                     : Постоянный
Частота кадров                           : 23,976 кадра/сек
Цветовое пространство                    : YUV
Субдискретизация насыщенности            : 4:2:0
Битовая глубина                          : 8 бит
Тип развёртки                            : Прогрессивная
Бит/(Пиксели*Кадры)                      : 0.153
Размер потока                            : 4,06 Гбайт (90%)
Библиотека кодирования                   : x264 core 130 r2273 b3065e6
Настройки программы                      : cabac=1 / ref=4 / deblock=1:1:1 / analyse=0x3:0x133 / me=umh / subme=9 / psy=1 / psy_rd=0.80:0.10 / mixed_ref=1 / me_range=32 / chroma_me=1 / trellis=2 / 8x8dct=1 / cqm=0 / deadzone=21,11 / fast_pskip=0 / chroma_qp_offset=-3 / threads=12 / lookahead_threads=2 / sliced_threads=0 / nr=0 / decimate=1 / interlaced=0 / bluray_compat=0 / constrained_intra=0 / bframes=7 / b_pyramid=2 / b_adapt=2 / b_bias=0 / direct=3 / weightb=1 / open_gop=0 / weightp=2 / keyint=250 / keyint_min=23 / scenecut=40 / intra_refresh=0 / rc_lookahead=60 / rc=crf / mbtree=1 / crf=18.0 / qcomp=0.60 / qpmin=0 / qpmax=69 / qpstep=4 / vbv_maxrate=50000 / vbv_bufsize=62500 / crf_max=0.0 / nal_hrd=none / ip_ratio=1.40 / aq=1:0.90
Язык                                     : Russian
Default                                  : Да
Forced                                   : Нет
Аудио
Идентификатор                            : 2
Формат                                   : AC-3
Формат/Информация                        : Audio Coding 3
Расширение режима                        : CM (complete main)
Параметр Endianness формата              : Big
Идентификатор кодека                     : A_AC3
Продолжительность                        : 1 ч. 16 м.
Вид битрейта                             : Постоянный
Битрейт                                  : 640 Кбит/сек
Каналы                                   : 6 каналов
Расположение каналов                     : Front: L C R, Side: L R, LFE
Частота                                  : 48,0 КГц
Битовая глубина                          : 16 бит
Метод сжатия                             : С потерями
Размер потока                            : 351 Мбайт (8%)
Язык                                     : Russian
Default                                  : Да
Forced                                   : Нет
Меню
00:00:00.000                             : :01
00:04:10.417                             : :02
00:11:21.764                             : :03
00:19:11.275                             : :04
00:26:15.199                             : :05
00:32:20.021                             : :06
00:39:59.731                             : :07
00:47:29.764                             : :08
00:54:50.871                             : :09
01:02:52.143                             : :10
01:08:43.119                             : :11
01:13:06.716                             : :12
--Релиз группы:

Проверено на встроенном плейере ТВ LG 42LW4500
--
Остальные раздачи этого фильма (2)
Благодарности релизеру (19)

Торрент:

Статус:

Размер:

Зарегистрирован   [ 2013-05-23 22:16 ]

проверено

4.49 GB

 
 Мнение о фильме (19)





"Ирония судьбы-2", "Джентльмены удачи-2", теперь и до Буратино добрались...Неужели опять пошли на все, лишь бы бабла заработать? Боюсь смотреть...
P.S. Релизеру, конечно, большое спасибо.
 

судя по скринам - это какой-то eбан8й пи3деТС!
Извините.
 

кошмар , куда мир катится???
 

Ну зачем мультику с такой рисовкой 3D ?!!
 

Спасибо всем! КАЧАТЬ НЕ БУДУ! Но спасибо что выложили!
 

Спасибо всем! КАЧАТЬ НЕ БУДУ! Но спасибо что выложили!
Жжошь)))
 

За две недели проката данного фильма в нашем 7 ми зальном кинотеатре было всего 4 сеанса по 5-10 человек
 

Отвратительная картинка. Левый и правый ракурсы разного контраста - это даже на скринах видно. В глазах постоянная рябь и блики.
 

Аццкий ацтой! У меня племянник 6 лет рисует лучше! Анниматоров фтопку!
 

да уж, 3d бред
 

Посмотрите , вслушайтесь... он добрый. "Следствие ведут колобки" все смотрели и про наркотики тогда не думали, а теперь видимо попробовали и на личном опыте сравниваете.!?
 

Фильм не понравился. 3D - так себе.
 

Нет слов! Издевательство над Советской классикой!
 

за релиз - спасибо. но МОСКАЛИ,- в конец зажрались, ладно,- эти пробки, решаемые, всем бюджетом Росси, но этот мульт, просто издевательство. ведь, все участники этого проекта - бабки получили...
 

Даже не знаю.
Действительно : прорисовка героев, как "капитан Врунгель, доктор Айболит (мульт-мюзикл)"
Ага.
Буратило конечно герой - бесспорно.
А вот в гламурную надо всем.....
 

всем привет и с праздником! Помогите,подскажите как скачивать фильмы и мультики с этого сайта.
 

Наталья28, привет, спс.
как тут качать - http://torrents3d.ru/article/56
 

Детям не показывайте, DD5,1 - отличное, нашему автору спасибо. Диски с продажи - изъять. Катю Мехайлову - под арест, за загубленные детские души. Смотрел 15 мин ,плювался, матюгался, хаял всю Россию, куда-же б катится, аж напиться захотелось - стресс снять. Стыд - нашей режессуре!
 

идиоты как такое вообще можно выпускать, а ведь кто-то лицензию купит