Торренты   
 
 

 

Диномама 3D / Dino Time (Юн-сок Чхве, Джон Кафка) [2012 г., , BDrip, Half1080p, Anamorph OverUnder]

Рейтинг 3D:
24 голосов
7.0
Рейтинг фильма:
25 голосов
7.4
 
Вы должны быть авторизированы,
чтобы ставить оценки


Диномама 3D / Dino Time
Год выпуска: 2012
Страна: США, Корея Южная
Жанр: мультфильм, комедия, приключения, семейный
Продолжительность: 01:25:25
Перевод: Профессиональный (полное дублирование)
Режиссер: Юн-сок Чхве, Джон Кафка
В ролях: Джейн Линч, Роб Шнайдер, Тара Стронг, Памела Адлон, Стивен Болдуин, Мелани Гриффит, Уильям Болдуин, Юрий Ловенталь, Джессика Ди Чикко, Мелани Абрамофф, Владимир Рыбальченко
Описание: Эрни, его сестра Джулия и лучший друг Макс — неразлучная троица. Однажды, друзья без спроса залезли в странное устройство, которое сконструировал папа Макса, и случайно нажали кнопку запуска. Устройство оказалось машиной времени, и ребята очутились в Юрском периоде, прямо в гнезде Тираннозавра. Но вот радость: самка гигантского ящера приняла ребят за своих детенышей. Но не все, конечно, так безоблачно в мире хищников. Кое-кто мечтает полакомиться непрошеными гостями! Друзьям нужно немедленно уносить ноги и подумать о возвращении. Но как это сделать, если важная деталь машины исчезла?
Формат 3D: Anamorph OverUnder
Видео: AVC, High@L4.1, 1920х1080р, 23,976 кадра/сек, 6307 Кбит/сек
Аудио: Rus, AC-3, 6 каналов, 640 Кбит/сек, 48,0 КГц

Скриншоты

Media Info

Код:
Общее
Уникальный идентификатор                 : 247210131390646555307981817365018856181 (0xB9FAF0807545790D8C3C550CE40E4AF5)
Полное имя                               : H:\DinoTime.3D.2012.BD3DRip.Half.OU.x264.AC3.3D-RuGroup.mkv
Формат                                   : Matroska
Версия формата                           : Version 2
Размер файла                             : 4,23 Гбайт
Продолжительность                        : 1 ч. 25 м.
Общий поток                              : 7088 Кбит/сек
Название фильма                          : Dino Time 3D release 3D-RuGroup rip by StarStranger aka itsamna
Дата кодирования                         : UTC 2013-05-27 18:50:49
Программа кодирования                    : mkvmerge v3.4.0 ('Rapunzel') сборка от May 15 2010 09:38:20
Библиотека кодирования                   : libebml v0.8.0 + libmatroska v0.9.0
Видео
Идентификатор                            : 1
Формат                                   : AVC
Формат/Информация                        : Advanced Video Codec
Профиль формата                          : High@L4.1
Параметр CABAC формата                   : Да
Параметр ReFrames формата                : 4 кадра
Идентификатор кодека                     : V_MPEG4/ISO/AVC
Продолжительность                        : 1 ч. 25 м.
Битрейт                                  : 6307 Кбит/сек
Ширина                                   : 1920 пикселей
Высота                                   : 1080 пикселей
Соотношение сторон                       : 16:9
Режим частоты кадров                     : Постоянный
Частота кадров                           : 23,976 кадра/сек
Цветовое пространство                    : YUV
Субдискретизация насыщенности            : 4:2:0
Битовая глубина                          : 8 бит
Тип развёртки                            : Прогрессивная
Бит/(Пиксели*Кадры)                      : 0.127
Размер потока                            : 3,76 Гбайт (89%)
Библиотека кодирования                   : x264 core 130 r2273 b3065e6
Настройки программы                      : cabac=1 / ref=4 / deblock=1:-2:-2 / analyse=0x3:0x133 / me=umh / subme=9 / psy=1 / psy_rd=0.90:0.00 / mixed_ref=1 / me_range=32 / chroma_me=1 / trellis=2 / 8x8dct=1 / cqm=0 / deadzone=21,11 / fast_pskip=0 / chroma_qp_offset=-2 / threads=12 / lookahead_threads=2 / sliced_threads=0 / nr=0 / decimate=1 / interlaced=0 / bluray_compat=0 / constrained_intra=0 / bframes=7 / b_pyramid=2 / b_adapt=2 / b_bias=0 / direct=3 / weightb=1 / open_gop=0 / weightp=2 / keyint=250 / keyint_min=23 / scenecut=40 / intra_refresh=0 / rc_lookahead=60 / rc=crf / mbtree=1 / crf=18.0 / qcomp=0.60 / qpmin=0 / qpmax=69 / qpstep=4 / vbv_maxrate=50000 / vbv_bufsize=62500 / crf_max=0.0 / nal_hrd=none / ip_ratio=1.40 / aq=1:0.90
Default                                  : Да
Forced                                   : Нет
Аудио
Идентификатор                            : 2
Формат                                   : AC-3
Формат/Информация                        : Audio Coding 3
Расширение режима                        : CM (complete main)
Параметр Endianness формата              : Big
Идентификатор кодека                     : A_AC3
Продолжительность                        : 1 ч. 25 м.
Вид битрейта                             : Постоянный
Битрейт                                  : 640 Кбит/сек
Каналы                                   : 6 каналов
Расположение каналов                     : Front: L C R, Side: L R, LFE
Частота                                  : 48,0 КГц
Битовая глубина                          : 16 бит
Метод сжатия                             : С потерями
Размер потока                            : 391 Мбайт (9%)
Язык                                     : Russian
Default                                  : Да
Forced                                   : Нет
Меню
00:00:00.000                             : :00:00:00.000
00:11:31.149                             : :00:11:31.149
00:24:23.504                             : :00:24:23.504
00:32:32.284                             : :00:32:32.284
00:44:41.304                             : :00:44:41.304
00:54:39.193                             : :00:54:39.193
01:10:21.175                             : :01:10:21.175
01:18:42.885                             : :01:18:42.885
--Релиз группы:

Проверено на встроенном плейере ТВ LG 42LW4500
--
Благодарности релизеру (20)

Торрент:

Статус:

Размер:

Зарегистрирован   [ 2013-05-27 23:04 ]

проверено

4.23 GB

 
 Мнение о фильме (9)





Мультфильм для детей младшего возраста , ребенку очень понравилось , большое спасибо !
 
евгения мурашко Профиль 28-Май-2013 16:51

НАМ ПОНРАВИЛОСЬ! И ФИЛЬМ И 3D
 

Мультфильм для детей младшего возраста. Я не много постарше,посмотрел из любопытства,какое 3D ? На 3!
 

Неплохой мультик для малышей, 3д вполне объемное. Не шедевр но и не полный отстой.
 

Младшей понравилось.. Но ей вообще всё новое нравится. :)))
 
александр54 Профиль 04-Июн-2013 13:45

Неплохой мультик для малышей, 3д вполне объемное.Мелкому в 4 года понравилось.
 
МедведьУсач Профиль 23-Июн-2013 16:52

Мульт ну так на раз. Из-за маленького размера файла-качество не четкое. Временами глубины нет вообще. Вылетов нет
 

мульт не плохой, спасибо релизеру
 

На одном и том же месте мульт подвисает((((