Торренты   
 
 


Оз: Великий и Ужасный в 3D / Oz: The Great and Powerful in 3D [2013 Bdrip 1080 Anamorph OverUnder] (Сэм Рэйми) [2013 г., Anamorph OverUnder]

Рейтинг 3D:
11 голосов
6.5
Рейтинг фильма:
9 голосов
6.2
 
Вы должны быть авторизированы,
чтобы ставить оценки


© Закрыто правообладателем
Год выпуска: 2013
Страна: сша
Жанр: фэнтези
Продолжительность: 02:10:29
Перевод: Профессиональный (полное дублирование)
Режиссер: Сэм Рэйми
В ролях: Джеймс Франко, Мила Кунис, Рейчел Вайс, Мишель Уильямс, Зак Брафф, Билл Коббс, Джои Кинг, Тони Кокс, Стивен Р. Харт, Эбигейл Спенсер
Описание: Когда ураган забрасывает циркового фокусника Оскара Диггса из пыльного Канзаса в волшебную страну Оз, склонный к мошенничеству циркач полагает, что он поймал удачу за хвост - ведь с помощью своих трюков он с легкостью может добыть в новых землях и славу и богатство.
Однако его ждёт встреча с тремя чародейками, Теодорой, Эванорой и Глиндой, которые сомневаются в том, тот ли это великий волшебник, появления которого ждали легковерные жители страны Оз. Волей-неволей, пришелец оказывается втянутым в противостояние эпического масштаба, и ему приходится использовать весь свой «магический» арсенал, с добавлением толики настоящего волшебства.
В ситуации выбора между Добром и Злом, Оскару Диггсу предстоит не только стать Великим и Ужасным Волшебником из Страны Оз, но и немного измениться к лучшему
Формат 3D: Anamorph OverUnder
Видео: Video: MPEG4 Video (H264) 1920x800 23.976fps [Video]

Скриншоты





Media Info

General
Unique ID : 224894872418443344095443249404104281083 (0xA9312D4A2B52F94D988B8F08BEA60BFB)
Complete name : C:\Temp_Hd\mkv\OZ_THE_GREAT_AND_POWERFUL\OZ_THE_GREAT_AND_POWERFUL.Anamorph OverUnder.mkv
Format : Matroska
Format version : Version 1
File size : 11.6 GiB
Duration : 2h 10mn
Overall bit rate mode : Variable
Overall bit rate : 12.8 Mbps
Movie name : OZ_THE_GREAT_AND_POWERFUL.Title803.Bluray3DRip
Encoded date : UTC 2013-06-01 21:20:06
Writing application : mkvmerge v2.3.0 ('Freak U') built on Sep 8 2008 18:32:16
Writing library : libebml v0.7.7 + libmatroska v0.8.1
Video
ID : 1
Format : AVC
Format/Info : Advanced Video Codec
Format profile : High@L4.1
Format settings, CABAC : Yes
Format settings, ReFrames : 2 frames
Codec ID : V_MPEG4/ISO/AVC
Duration : 2h 10mn
Bit rate mode : Variable
Bit rate : 12.1 Mbps
Maximum bit rate : 18.5 Mbps
Width : 1 920 pixels
Height : 800 pixels
Display aspect ratio : 2.40:1
Frame rate mode : Constant
Frame rate : 23.976 fps
Color space : YUV
Chroma subsampling : 4:2:0
Bit depth : 8 bits
Scan type : Progressive
Bits/(Pixel*Frame) : 0.328
Stream size : 11.0 GiB (95%)
Default : Yes
Forced : No
Audio
ID : 2
Format : AC-3
Format/Info : Audio Coding 3
Mode extension : CM (complete main)
Format settings, Endianness : Big
Codec ID : A_AC3
Duration : 2h 10mn
Bit rate mode : Constant
Bit rate : 448 Kbps
Channel(s) : 6 channels
Channel positions : Front: L C R, Side: L R, LFE
Sampling rate : 48.0 KHz
Bit depth : 16 bits
Compression mode : Lossy
Stream size : 418 MiB (4%)
Default : Yes
Forced : No
Menu
00:00:00.000 : en:(01)00:00:00:000
00:02:37.699 : en:(02)00:02:37:699
00:06:16.959 : en:(03)00:06:16:959
00:09:57.555 : en:(04)00:09:57:555
00:11:32.691 : en:(05)00:11:32:691
00:15:20.753 : en:(06)00:15:20:753
00:17:47.191 : en:(07)00:17:47:191
00:20:29.478 : en:(08)00:20:29:478
00:24:01.982 : en:(09)00:24:01:982
00:24:49.779 : en:(10)00:24:49:779
00:27:01.661 : en:(11)00:27:01:661
00:29:37.358 : en:(12)00:29:37:358
00:32:43.419 : en:(13)00:32:43:419
00:34:30.193 : en:(14)00:34:30:193
00:37:22.657 : en:(15)00:37:22:657
00:38:57.376 : en:(16)00:38:57:376
00:40:39.145 : en:(17)00:40:39:145
00:42:09.944 : en:(18)00:42:09:944
00:42:52.444 : en:(19)00:42:52:444
00:45:33.480 : en:(20)00:45:33:480
00:47:22.839 : en:(21)00:47:22:839
00:48:32.409 : en:(22)00:48:32:409
00:53:29.831 : en:(23)00:53:29:831
00:55:22.652 : en:(24)00:55:22:652
00:57:15.932 : en:(25)00:57:15:932
00:59:10.838 : en:(26)00:59:10:838
01:02:05.263 : en:(27)01:02:05:263
01:05:33.220 : en:(28)01:05:33:220
01:06:21.102 : en:(29)01:06:21:102
01:09:55.357 : en:(30)01:09:55:357
01:12:20.836 : en:(31)01:12:20:836
01:15:37.783 : en:(32)01:15:37:783
01:18:20.320 : en:(33)01:18:20:320
01:19:47.782 : en:(34)01:19:47:782
01:21:27.882 : en:(35)01:21:27:882
01:26:16.170 : en:(36)01:26:16:170
01:28:08.783 : en:(37)01:28:08:783
01:30:33.219 : en:(38)01:30:33:219
01:34:24.116 : en:(39)01:34:24:116
01:36:57.436 : en:(40)01:36:57:436
01:37:35.975 : en:(41)01:37:35:975
01:41:30.876 : en:(42)01:41:30:876
01:42:30.394 : en:(43)01:42:30:394
01:45:51.762 : en:(44)01:45:51:762
01:48:33.423 : en:(45)01:48:33:423
01:51:23.802 : en:(46)01:51:23:802
01:54:26.317 : en:(47)01:54:26:317
01:55:54.072 : en:(48)01:55:54:072
01:57:58.404 : en:(49)01:57:58:404
01:59:34.417 : en:(50)01:59:34:417
02:02:49.570 : en:(51)02:02:49:570
02:04:32.756 : en:(52)02:04:32:756
02:10:29.738 : en:(53)02:10:29:738
Благодарности релизеру (14)

Торрент:

Статус:

Размер:

Зарегистрирован   [ 2013-06-02 01:33 ]

© закрыто правообладателем

11.63 GB