Торренты   
 
 

 

Король пингвинов в 3Д / The Penguin King 3D [2012, Документальный, BDrip, 1080p]Full OverUnder / Вертикальная стереопара

Рейтинг 3D:
3 голосов
9.0
Рейтинг фильма:
3 голосов
9.3
 
Вы должны быть авторизированы,
чтобы ставить оценки


Король пингвинов / The Penguin King
Год выпуска: 2012
Страна: Великобритания
Студия: Atlantic Productions, Sky 3D, Galileo Digital Ente
Жанр: Документальный
Продолжительность: 01:20:13
Перевод: Одноголосый закадровый
Русские субтитры: нет
В ролях: Тим Аллен, Дэвид Аттенборо
Описание: Южная Джорджия — одинокий остров в огромном океане. 900 миль от Антарктиды, имеющий протяженность всего 100 миль. Дикий пейзаж с горными хребтами, огромные ледники, равнины с гуляющими по ним ветрами наполовину погребенные под снегом и льдом.
Три года назад Король пингвинов покинул свой дом. Теперь он возвращается к месту, где он родился и вырос: город пингвинов. Одно из наиболее густо заселенных и востребованных мест обитания во всем южном полушарии, и каким-то образом он должен основать свой дом в нем. Он должен найти себе пару.
Далее следует путешествие через самые сложные времена жизни короля пингвинов. Его история зачастую комична, иногда трагическая, и в конечном итоге торжествующая: ритуал формирования пары на одной из последних великих пустынь на нашей планете.
Качество: BDrip
Контейнер: MKV
Формат 3D: OverUnder / Вертикальная стереопара
Порядок ракурсов: левый ракурс первый
Видео кодек: x264
Аудио кодек: AC3
Видео: AVC / High@L5.0 / 23,976 fps / 1920х2160 / 22,4 Мбит/сек
Аудио: Русский / AC3 / 48 KHz / 5.1 ch / 640 Kbps
Аудио 2: Английский / AC3 / 48 KHz / 5.1 ch / 640 Kbps
Релиз группы: ВНИМАНИЕ ! На встроенных ТВ-плейерах работать не будет!!!
Железные плееры на которых воспроизводятся полные стереопары:Popcorn C-200 , Dune HD Smart D1 , Dune HD DUO , Dune HD Smart H1 , Dune HD Smart B1 , Dune HD Max , Dune HD TV-303D , Dune HD Base 3D

MediaInfo

Общее
Уникальный идентификатор : 178807408296014991980319350954466343210 (0x86850DDF7F7500E4893AE71CEDD5F92A)
Полное имя : E:\закачки\The Penguin King.Rip by SeRoGa00.mkv
Формат : Matroska
Версия формата : Version 2
Размер файла : 13,6 Гбайт
Продолжительность : 1 ч. 20 м.
Общий поток : 24,2 Мбит/сек
Дата кодирования : UTC 2013-06-02 06:49:00
Программа кодирования : mkvmerge v3.4.0 ('Rapunzel') сборка от May 15 2010 09:38:20
Библиотека кодирования : libebml v0.8.0 + libmatroska v0.9.0
Видео
Идентификатор : 1
Формат : AVC
Формат/Информация : Advanced Video Codec
Профиль формата : High@L5.0
Параметр CABAC формата : Да
Параметр ReFrames формата : 4 кадра
Идентификатор кодека : V_MPEG4/ISO/AVC
Продолжительность : 1 ч. 20 м.
Битрейт : 22,4 Мбит/сек
Ширина : 1920 пикселей
Высота : 2160 пикселей
Соотношение сторон : 0,889
Частота кадров : 23,976 кадра/сек
Цветовое пространство : YUV
Субдискретизация насыщенности : 4:2:0
Битовая глубина : 8 бит
Тип развёртки : Прогрессивная
Бит/(Пиксели*Кадры) : 0.226
Размер потока : 12,6 Гбайт (93%)
Заголовок : Rip by SeRoGa00
Библиотека кодирования : x264 core 128 r2216kMod 198a7ea
Настройки программы : cabac=1 / ref=4 / deblock=1:-3:-3 / analyse=0x3:0x113 / me=umh / subme=9 / psy=1 / fade_compensate=0.00 / psy_rd=1.00:0.15 / mixed_ref=1 / me_range=16 / chroma_me=1 / trellis=2 / 8x8dct=1 / cqm=0 / deadzone=21,11 / fast_pskip=1 / chroma_qp_offset=-3 / threads=9 / lookahead_threads=1 / sliced_threads=0 / nr=0 / decimate=1 / interlaced=0 / bluray_compat=0 / constrained_intra=0 / bframes=6 / b_pyramid=2 / b_adapt=2 / b_bias=0 / direct=3 / weightb=1 / open_gop=0 / weightp=2 / keyint=250 / keyint_min=23 / scenecut=40 / intra_refresh=0 / rc_lookahead=60 / rc=crf / mbtree=1 / crf=18.0000 / qcomp=0.60 / qpmin=10 / qpmax=69 / qpstep=4 / vbv_maxrate=40000 / vbv_bufsize=40000 / crf_max=0.0 / nal_hrd=none / ip_ratio=1.40 / aq=1:1.00
Язык : English
Аудио #1
Идентификатор : 2
Формат : AC-3
Формат/Информация : Audio Coding 3
Расширение режима : CM (complete main)
Идентификатор кодека : A_AC3
Продолжительность : 1 ч. 20 м.
Вид битрейта : Постоянный
Битрейт : 640 Кбит/сек
Каналы : 6 каналов
Расположение каналов : Front: L C R, Side: L R, LFE
Частота : 48,0 КГц
Битовая глубина : 16 бит
Метод сжатия : С потерями
Размер потока : 367 Мбайт (3%)
Язык : Russian
Аудио #2
Идентификатор : 3
Формат : AC-3
Формат/Информация : Audio Coding 3
Расширение режима : CM (complete main)
Идентификатор кодека : A_AC3
Продолжительность : 1 ч. 20 м.
Вид битрейта : Постоянный
Битрейт : 640 Кбит/сек
Каналы : 6 каналов
Расположение каналов : Front: L C R, Side: L R, LFE
Частота : 48,0 КГц
Битовая глубина : 16 бит
Метод сжатия : С потерями
Размер потока : 367 Мбайт (3%)
Язык : English

Скриншоты


Благодарности релизеру (1)

Торрент:

Статус:

Размер:

Зарегистрирован   [ 2013-06-02 11:58 ]

проверено

13.56 GB