Торренты   
 
 

 

Оз: Великий и Ужасный / Oz the Great and Powerful (Сэм Рэйми) [2013 г., , BDrip, Half1080p, Anamorph OverUnder]

Рейтинг 3D:
441 голосов
8.2
Рейтинг фильма:
434 голосов
7.8
 
Вы должны быть авторизированы,
чтобы ставить оценки


© Закрыто правообладателем
Год выпуска: 2013
Страна: США (Walt Disney Pictures, Roth Films, Curtis-Donen Productions)
Жанр: фэнтези, приключения, комедия, семейный
Продолжительность: 02:10:30
Перевод: Профессиональный (полное дублирование)
Режиссер: Сэм Рэйми
В ролях: Джеймс Франко, Мила Кунис, Рейчел Вайс, Мишель Уильямс, Зак Брафф, Билл Коббс, Джои Кинг, Тони Кокс, Стивен Р. Харт, Эбигейл Спенсер
Описание: Когда ураган забрасывает циркового фокусника Оскара Диггса из пыльного Канзаса в волшебную страну Оз, склонный к мошенничеству циркач полагает, что он поймал удачу за хвост — ведь с помощью своих трюков он с легкостью может добыть в новых землях и славу и богатство.
Однако его ждёт встреча с тремя чародейками, Теодорой, Эванорой и Глиндой, которые сомневаются в том, тот ли это великий волшебник, появления которого ждали легковерные жители страны Оз. Волей-неволей, пришелец оказывается втянутым в противостояние эпического масштаба, и ему приходится использовать весь свой «магический» арсенал, с добавлением толики настоящего волшебства.
В ситуации выбора между Добром и Злом, Оскару Диггсу предстоит не только стать Великим и Ужасным Волшебником из Страны Оз, но и немного измениться к лучшему.
Качество: BDrip by StarStranger
Контейнер: MKV
Формат 3D: Anamorph OverUnder / Вертикальная анаморфная стереопара
Порядок ракурсов: левый ракурс первый
Видео кодек: x264
Аудио кодек: AC3
Видео: AVC, High@L4.1, 1920х1080, 23,976 кадра/сек, 8053 Кбит/сек
Аудио:
Rus, AC-3, 6 каналов, 640 Кбит/сек, 48,0 КГц | Dub
Eng, AC-3, 6 каналов, 640 Кбит/сек, 48,0 КГц
Субтитры: русские, английские (полные)

MediaInfo и log

Код:
Общее
Уникальный идентификатор                 : 231012817387368746463389600056642347912 (0xADCB7343DEA466EBBB777ADED8BFA388)
Полное имя                               : H:\OzTheGreatAndPowerful.3D.2013.BD3DRip.Half.OU.x264.AC3.(ClearSound).3D-RuGroup.mkv
Формат                                   : Matroska
Версия формата                           : Version 2
Размер файла                             : 8,50 Гбайт
Продолжительность                        : 2 ч. 10 м.
Общий поток                              : 9327 Кбит/сек
Название фильма                          : Oz the Great and Powerful 3D release 3D-RuGroup rip by StarStranger aka itsamna
Дата кодирования                         : UTC 2013-06-02 08:56:39
Программа кодирования                    : mkvmerge v3.4.0 ('Rapunzel') сборка от May 15 2010 09:38:20
Библиотека кодирования                   : libebml v0.8.0 + libmatroska v0.9.0
Видео
Идентификатор                            : 1
Формат                                   : AVC
Формат/Информация                        : Advanced Video Codec
Профиль формата                          : High@L4.1
Параметр CABAC формата                   : Да
Параметр ReFrames формата                : 4 кадра
Идентификатор кодека                     : V_MPEG4/ISO/AVC
Продолжительность                        : 2 ч. 10 м.
Битрейт                                  : 8053 Кбит/сек
Ширина                                   : 1920 пикселей
Высота                                   : 1080 пикселей
Соотношение сторон                       : 16:9
Режим частоты кадров                     : Постоянный
Частота кадров                           : 23,976 кадра/сек
Цветовое пространство                    : YUV
Субдискретизация насыщенности            : 4:2:0
Битовая глубина                          : 8 бит
Тип развёртки                            : Прогрессивная
Бит/(Пиксели*Кадры)                      : 0.162
Размер потока                            : 7,34 Гбайт (86%)
Библиотека кодирования                   : x264 core 130 r2273 b3065e6
Настройки программы                      : cabac=1 / ref=4 / deblock=1:-3:-3 / analyse=0x3:0x133 / me=umh / subme=10 / psy=1 / psy_rd=1.00:0.15 / mixed_ref=1 / me_range=48 / chroma_me=1 / trellis=2 / 8x8dct=1 / cqm=0 / deadzone=21,11 / fast_pskip=0 / chroma_qp_offset=-3 / threads=12 / lookahead_threads=2 / sliced_threads=0 / nr=0 / decimate=1 / interlaced=0 / bluray_compat=0 / constrained_intra=0 / bframes=7 / b_pyramid=2 / b_adapt=2 / b_bias=0 / direct=3 / weightb=1 / open_gop=0 / weightp=2 / keyint=250 / keyint_min=23 / scenecut=40 / intra_refresh=0 / rc_lookahead=60 / rc=crf / mbtree=1 / crf=17.0 / qcomp=0.60 / qpmin=0 / qpmax=69 / qpstep=4 / vbv_maxrate=50000 / vbv_bufsize=62500 / crf_max=0.0 / nal_hrd=none / ip_ratio=1.40 / aq=1:0.90
Default                                  : Да
Forced                                   : Нет
Аудио #1
Идентификатор                            : 2
Формат                                   : AC-3
Формат/Информация                        : Audio Coding 3
Расширение режима                        : CM (complete main)
Параметр Endianness формата              : Big
Идентификатор кодека                     : A_AC3
Продолжительность                        : 2 ч. 10 м.
Вид битрейта                             : Постоянный
Битрейт                                  : 448 Кбит/сек
Каналы                                   : 6 каналов
Расположение каналов                     : Front: L C R, Side: L R, LFE
Частота                                  : 48,0 КГц
Битовая глубина                          : 16 бит
Метод сжатия                             : С потерями
Размер потока                            : 418 Мбайт (5%)
Заголовок                                : чистый звук
Язык                                     : Russian
Default                                  : Нет
Forced                                   : Нет
Аудио #2
Идентификатор                            : 3
Формат                                   : AC-3
Формат/Информация                        : Audio Coding 3
Расширение режима                        : CM (complete main)
Параметр Endianness формата              : Big
Идентификатор кодека                     : A_AC3
Продолжительность                        : 2 ч. 10 м.
Вид битрейта                             : Постоянный
Битрейт                                  : 640 Кбит/сек
Каналы                                   : 6 каналов
Расположение каналов                     : Front: L C R, Side: L R, LFE
Частота                                  : 48,0 КГц
Битовая глубина                          : 16 бит
Метод сжатия                             : С потерями
Размер потока                            : 597 Мбайт (7%)
Язык                                     : English
Default                                  : Нет
Forced                                   : Нет
Меню
00:00:00.000                             : en:Chapter 01
00:02:37.698                             : en:Chapter 02
00:06:16.958                             : en:Chapter 03
00:09:57.554                             : en:Chapter 04
00:11:32.691                             : en:Chapter 05
00:15:20.753                             : en:Chapter 06
00:17:47.191                             : en:Chapter 07
00:20:29.478                             : en:Chapter 08
00:24:01.982                             : en:Chapter 09
00:24:49.779                             : en:Chapter 10
00:27:01.661                             : en:Chapter 11
00:29:37.358                             : en:Chapter 12
00:32:43.419                             : en:Chapter 13
00:34:30.193                             : en:Chapter 14
00:37:22.657                             : en:Chapter 15
00:38:57.376                             : en:Chapter 16
00:40:39.145                             : en:Chapter 17
00:42:09.944                             : en:Chapter 18
00:42:52.444                             : en:Chapter 19
00:45:33.480                             : en:Chapter 20
00:47:22.839                             : en:Chapter 21
00:48:32.409                             : en:Chapter 22
00:53:29.831                             : en:Chapter 23
00:55:22.652                             : en:Chapter 24
00:57:15.931                             : en:Chapter 25
00:59:10.838                             : en:Chapter 26
01:02:05.263                             : en:Chapter 27
01:05:33.220                             : en:Chapter 28
01:06:21.102                             : en:Chapter 29
01:09:55.774                             : en:Chapter 30
01:12:20.836                             : en:Chapter 31
01:15:37.783                             : en:Chapter 32
01:18:20.320                             : en:Chapter 33
01:19:47.782                             : en:Chapter 34
01:21:27.881                             : en:Chapter 35
01:26:16.170                             : en:Chapter 36
01:28:08.783                             : en:Chapter 37
01:30:33.219                             : en:Chapter 38
01:34:24.116                             : en:Chapter 39
01:36:57.436                             : en:Chapter 40
01:37:35.975                             : en:Chapter 41
01:41:30.876                             : en:Chapter 42
01:42:30.394                             : en:Chapter 43
01:45:51.762                             : en:Chapter 44
01:48:33.423                             : en:Chapter 45
01:51:23.802                             : en:Chapter 46
01:54:26.317                             : en:Chapter 47
01:55:54.072                             : en:Chapter 48
01:57:58.404                             : en:Chapter 49
01:59:34.417                             : en:Chapter 50
02:02:49.570                             : en:Chapter 51
02:04:32.756                             : en:Chapter 52

Скриншоты

--Релиз группы:

Проверено на встроенном плейере ТВ LG 42LW4500
--17.08.2013 - Релиз обновлён -добавлена русская дублированная дорожка с BD3D CEE и пакет субтитров.
Желающие, скачайте заново торрент-файл.
Остальные раздачи этого фильма (3)
Благодарности релизеру (90)

Торрент:

Статус:

Размер:

Зарегистрирован   [ 2013-08-18 10:31 ]

© закрыто правообладателем

8.68 GB

 
 Мнение о фильме (173)

Пред.  1, 2, 3, 4, 5, 6, 7, 8, 9  След.






Ребята посмотрел 15 минут 3Д присутствует но изображение черно-белое и узкий экран
 

Ребята посмотрел 15 минут 3Д присутствует но изображение черно-белое и узкий экран
осталось 6 минут и откроется вся картина )))))
 

Спасибо)))) не дождался!!!
 

Кино так себе, а 3д хорошее.
 

с удовольствием посмотрели фильм всей семьей,отлично,спасибо!
 

Неплохой эффект 3д. Фильм так себе)
 

Фильм хороший ,но 3д не впечатлило)
 

Фильм детский, подростковый. 3D красивое и виды шикарные.
 

не Ах!,но на раз пойдет.3d средненько.Релизёру спс
 

смотреть не пересмотреть
 

Отличный фильм! Большое спасибо с поклоном Dag13 за мастерство, труд и оперативность! Спасибо и трекеру за постоянный поиск новых интересных решений!
 

Очередной добрый детский фильм из Голливуда с отличным 3D,жаль,что у нас такого не снимают........
 

Фильм хороший, очень красочный. Начало фильма немного сбивает с толку, но потом понимаешь как это красиво, переход с чёрно белого в цветное изображение,да ещё и на весь экран медленно расширяется. На большом экране аж дух захватывает от красоты. Но вот 3D, по моим скромным ощущениям, я ожидал намного лучше. Почему создатели фильмов упорно не хотят использовать 3D эфекты на всю катушку? Может я чего то не понимаю и мы настолько избаловались, что поднимаем слишком высоко планку в своих ожиданиях?
 

классный фильм ! всем советую ! необычный сюжет...спасибо автору !
 

Смотрели семьей, всем фильм понравился и 3D хорошее, так что советую! И спасибо автору!
 

Почему у меня в пол экрана?
 

Фильм зачетный!! 3D на высоте
 

Если че, пол экрана в черно белом формате только с начала, такая задумка режиссера, потом все будет ОК.
 

Супер фильм. Не зря ждали! Очень красивая картинка. 3D соответствующее. Сняли бы еще по всем книгам фильмы - было бы шикарно!
 

Хороший позитивный фильм :-)
 

Страница 2 из 9

Пред.  1, 2, 3, 4, 5, 6, 7, 8, 9  След.