Торренты   
 
 

 

Oз: Beликий и Ужacный в 3Д / Оz thе Grеаt аnd Роwеrful 3D (Cэм Pэйми / Sаm Rаimi) [2013, Фэнтези, Приключения, Комедия, Семейный, BDrip, 1080p]Full OverUnder / Вертикальная стереопара

Рейтинг 3D:
441 голосов
8.2
Рейтинг фильма:
434 голосов
7.8
 
Вы должны быть авторизированы,
чтобы ставить оценки


Oз: Beликий и Ужacный / Оz thе Grеаt аnd Роwеrful
Год выпуска: 2013
Страна: США
Студия: Walt Disney Pictures, Roth Films, Curtis-Donen Productions
Жанр: Фэнтези, Приключения, Комедия, Семейный
Продолжительность: 02:10:30
Перевод: Профессиональный (дублированный)
Русские субтитры: нет
Режиссер на русском: Cэм Pэйми
Режиссер на английском: Sаm Rаimi
В ролях: Джеймс Франко, Мила Кунис, Рейчел Вайс, Мишель Уильямс, Зак Брафф, Билл Коббс, Джои Кинг, Тони Кокс, Стивен Р. Харт, Эбигейл Спенсер
Описание: Когда ураган забрасывает циркового фокусника Оскара Диггса из пыльного Канзаса в волшебную страну Оз, склонный к мошенничеству циркач полагает, что он поймал удачу за хвост — ведь с помощью своих трюков он с легкостью может добыть в новых землях и славу и богатство.
Однако его ждёт встреча с тремя чародейками, Теодорой, Эванорой и Глиндой, которые сомневаются в том, тот ли это великий волшебник, появления которого ждали легковерные жители страны Оз. Волей-неволей, пришелец оказывается втянутым в противостояние эпического масштаба, и ему приходится использовать весь свой «магический» арсенал, с добавлением толики настоящего волшебства.
В ситуации выбора между Добром и Злом, Оскару Диггсу предстоит не только стать Великим и Ужасным Волшебником из Страны Оз, но и немного измениться к лучшему.

Качество: BDrip
Контейнер: MKV
Формат 3D: OverUnder / Вертикальная стереопара
Порядок ракурсов: левый ракурс первый
Видео кодек: x264
Аудио кодек: DTS
Видео: AVC / High@L5.0 / 23,976 fps / 1920х1600 / 15,6 Мбит/сек
Аудио: Русский / DTS / 48 KHz / 5.1 ch / 1510 Кбит/сек
Аудио 2: Английский / AC3 / 48 KHz / 5.1 ch / 640 Кбит/сек
Релиз группы: ВНИМАНИЕ ! На встроенных ТВ-плеерах работать не будет!!!
Железные плееры на которых воспроизводятся полные стереопары:Popcorn C-200 , Dune HD Smart D1 , Dune HD DUO , Dune HD Smart H1 , Dune HD Smart B1 , Dune HD Max , Dune HD TV-303D , Dune HD Base 3D

MediaInfo

Общее
Уникальный идентификатор : 245443677044110234494955188465293696748 (0xB8A6BB940F8699CD8B1DF20FFE999EEC)
Полное имя : E:закачкиОz thе Grеаt аnd Роwеrful.Rip by SeRoGa00.mkv
Формат : Matroska
Версия формата : Version 2
Размер файла : 17,0 Гбайт
Продолжительность : 2 ч. 10 м.
Режим общего битрейта : Переменный
Общий поток : 18,7 Мбит/сек
Дата кодирования : UTC 2013-06-03 19:25:06
Программа кодирования : mkvmerge v3.4.0 ('Rapunzel') сборка от May 15 2010 09:38:20
Библиотека кодирования : libebml v0.8.0 + libmatroska v0.9.0
Видео
Идентификатор : 1
Формат : AVC
Формат/Информация : Advanced Video Codec
Профиль формата : High@L5.0
Параметр CABAC формата : Да
Параметр ReFrames формата : 4 кадра
Идентификатор кодека : V_MPEG4/ISO/AVC
Продолжительность : 2 ч. 10 м.
Битрейт : 15,6 Мбит/сек
Ширина : 1920 пикселей
Высота : 1600 пикселей
Соотношение сторон : 1,200
Частота кадров : 23,976 кадра/сек
Цветовое пространство : YUV
Субдискретизация насыщенности : 4:2:0
Битовая глубина : 8 бит
Тип развёртки : Прогрессивная
Бит/(Пиксели*Кадры) : 0.212
Размер потока : 14,2 Гбайт (84%)
Заголовок : Rip by SeRoGa00
Библиотека кодирования : x264 core 128 r2216kMod 198a7ea
Настройки программы : cabac=1 / ref=4 / deblock=1:-3:-3 / analyse=0x3:0x113 / me=umh / subme=9 / psy=1 / fade_compensate=0.00 / psy_rd=1.00:0.15 / mixed_ref=1 / me_range=16 / chroma_me=1 / trellis=2 / 8x8dct=1 / cqm=0 / deadzone=21,11 / fast_pskip=1 / chroma_qp_offset=-3 / threads=9 / lookahead_threads=1 / sliced_threads=0 / nr=0 / decimate=1 / interlaced=0 / bluray_compat=0 / constrained_intra=0 / bframes=6 / b_pyramid=2 / b_adapt=2 / b_bias=0 / direct=3 / weightb=1 / open_gop=0 / weightp=2 / keyint=250 / keyint_min=23 / scenecut=40 / intra_refresh=0 / rc_lookahead=60 / rc=crf / mbtree=1 / crf=18.0000 / qcomp=0.60 / qpmin=10 / qpmax=69 / qpstep=4 / vbv_maxrate=40000 / vbv_bufsize=40000 / crf_max=0.0 / nal_hrd=none / ip_ratio=1.40 / aq=1:1.00
Язык : English
Аудио #1
Идентификатор : 2
Формат : DTS
Формат/Информация : Digital Theater Systems
Профиль формата : MA / Core
Идентификатор кодека : A_DTS
Продолжительность : 2 ч. 10 м.
Вид битрейта : Переменный
Битрейт : 2035 Кбит/сек / 1510 Кбит/сек
Каналы : 6 каналов
Расположение каналов : Front: L C R, Side: L R, LFE
Частота : 48,0 КГц
Битовая глубина : 24 бит
Метод сжатия : Без потерь / Lossy
Язык : Russian
Аудио #2
Идентификатор : 3
Формат : AC-3
Формат/Информация : Audio Coding 3
Расширение режима : CM (complete main)
Идентификатор кодека : A_AC3
Продолжительность : 2 ч. 10 м.
Вид битрейта : Постоянный
Битрейт : 640 Кбит/сек
Каналы : 6 каналов
Расположение каналов : Front: L C R, Side: L R, LFE
Частота : 48,0 КГц
Битовая глубина : 16 бит
Метод сжатия : С потерями
Размер потока : 597 Мбайт (3%)
Язык : English

Скриншоты


Остальные раздачи этого фильма (3)
Благодарности релизеру (35)

Торрент:

Статус:

Размер:

Зарегистрирован   [ 2013-06-04 10:07 ]

проверено

17.02 GB

 
 Мнение о фильме (173)

1, 2, 3, 4, 5, 6, 7, 8, 9  След.






Класс! Жалею что в 3Д не дождался..
 

santana109, можно и пересмотреть еще раз в 3D фильм то вроде хороший)
ps возможно скоро будет звук получше.
 

Смотрел в кинотеатре. Фильм хороший! Для семьи! 3D-нормальное. Скачаю в коллекцию. Раздающий, дай скорости!!!
 

Согласен, фильм достоин того что бы пересмотреть в 3-d ! Так и поступим с женой )
 

Спасибо!!Хороший эффект 3D,больше эффект глубины,вылеты присутствуют в меньшей мере.Сюжет,режиссура,игра актеров,графика---оригинально,не плохи!!!!!!!!!!
 

Рекомендую)))
 

Посмотрел второй раз.Мнение не изменилось.Чего-то не хватает.Хотя 3d вертикалка явно лучше для моего тв.Вроде все есть.Но...
 

посмотрел, первый раз, фильм так се... не впечатлил. очень жаль было ведьмочку. В общем слава богу что не ходил в кино, а хотели с женой.
 

Хорошее 3Д, хорошая сказка, смотрел на телевизоре LG
 

Спасибо! мне понравился.
 

Читаю и не пойму, что же в фильме хорошего то? Ходил в кино с ребенком и женой на это фильм, обычно у нас мнения расходятся, насчет этого фильма согласились все что фильм так себе, и лучше бы на что другое сходили. Качать и еще раз мучить мозг просмотром данного "произведения" не буду.
 

Соглашусь, что фильм так себе.Посмотреть и забыть . да и 3D так себе.
 

фильм класс начало фигня не судьба цветным зделать а 3д супер!!!!!!!!!!
 

Вполне приличное 3Д, смотрю проектором Benq W 7000.
 

а почемуу меня размер изображения как в замочную скважину смотрю ,настроики проверял и через в нешний и через встроенный ни чего не растягивается
 

3д норм, а фильм говно
 

евгений 61, зайдите в комментарии о раздаче http://torrents3d.ru/viewtopic.php?t=4087 и прочитайте четвёртый-пятый пост...
 

фильм расказывает пред историю волшебника из изумрудного города
сам фильм очень даже нечего!!!!!!
3д на супер не тянет но и отвращения не вызывает
 

Хороший, добрый фильм - сказка, 3D соответствующее. Порадует и детей и взрослых, особенно родителей с детьми.
 

Спасибо читала в детстве сказку она называлась - волшебник изумрудного города посмотрим ещё большое спс.
 

Страница 1 из 9

1, 2, 3, 4, 5, 6, 7, 8, 9  След.