Торренты   
 
 

 

Оз: Великий и Ужасный / Oz the Great and Powerful (Сэм Рэйми) [2013 г., BDRip, Crop Anamorph OverUnder]

Рейтинг 3D:
441 голосов
8.2
Рейтинг фильма:
434 голосов
7.8
 
Вы должны быть авторизированы,
чтобы ставить оценки


Год выпуска: 2013
Страна: США
Жанр: фэнтези, приключения, комедия, семейный
Продолжительность: 02:10:30
Перевод: Профессиональный (полное дублирование)
Режиссер: Сэм Рэйми
В ролях: Джеймс Франко, Мила Кунис, Рейчел Вайс, Мишель Уильямс, Зак Брафф, Билл Коббс, Джои Кинг, Тони Кокс, Стивен Р. Харт, Эбигейл Спенсер
Описание: Когда ураган забрасывает циркового фокусника Оскара Диггса из пыльного Канзаса в волшебную страну Оз, склонный к мошенничеству циркач полагает, что он поймал удачу за хвост — ведь с помощью своих трюков он с легкостью может добыть в новых землях и славу и богатство.
Однако его ждёт встреча с тремя чародейками, Теодорой, Эванорой и Глиндой, которые сомневаются в том, тот ли это великий волшебник, появления которого ждали легковерные жители страны Оз. Волей-неволей, пришелец оказывается втянутым в противостояние эпического масштаба, и ему приходится использовать весь свой «магический» арсенал, с добавлением толики настоящего волшебства.
В ситуации выбора между Добром и Злом, Оскару Диггсу предстоит не только стать Великим и Ужасным Волшебником из Страны Оз, но и немного измениться к лучшему.
Внимание: Справа и слева у видеоряда обрезано по 248р, что дает возможность просмотра на полный экран (без черных полос) на телевизорах с соотношением сторон 16:9 без изменения пропорций.
Более подробная информация
Релиз группы:
Формат 3D: OverUnder BDRip, Crop Anamorph
Видео: AVC, High@L4.0, 1920х1080, 23,976 кадра/сек, 11,1 Мбит/сек
Аудио: Rus,AC-3, 6 каналов, 448 Кбит/сек, 48,0 КГц
Аудио: Eng, AC-3, 6 каналов, 640 Кбит/сек, 48,0 КГц

Скриншоты




Media Info

Общее
Уникальный идентификатор : 190458581338412074828470370252091774767 (0x8F48FD0E1B905876BB2A40C4FA87572F)
Полное имя : E:\STEREO CROP\Oz_The Great and Powerful_(CROP)_ Rip by Dag13.mkv
Формат : Matroska
Версия формата : Version 2
Размер файла : 11,3 Гбайт
Продолжительность : 2 ч. 10 м.
Общий поток : 12,4 Мбит/сек
Дата кодирования : UTC 2013-06-04 16:46:59
Программа кодирования : mkvmerge v3.4.0 ('Rapunzel') сборка от May 15 2010 09:38:20
Библиотека кодирования : libebml v0.8.0 + libmatroska v0.9.0
Видео
Идентификатор : 1
Формат : AVC
Формат/Информация : Advanced Video Codec
Профиль формата : High@L4.0
Параметр CABAC формата : Да
Параметр ReFrames формата : 4 кадра
Идентификатор кодека : V_MPEG4/ISO/AVC
Продолжительность : 2 ч. 10 м.
Битрейт : 11,1 Мбит/сек
Ширина : 1920 пикселей
Высота : 1080 пикселей
Соотношение сторон : 16:9
Частота кадров : 23,976 кадра/сек
Цветовое пространство : YUV
Субдискретизация насыщенности : 4:2:0
Битовая глубина : 8 бит
Тип развёртки : Прогрессивная
Бит/(Пиксели*Кадры) : 0.222
Размер потока : 10,1 Гбайт (89%)
Заголовок : Rip by Dag13
Библиотека кодирования : x264 core 120 r2145 748fe16
Настройки программы : cabac=1 / ref=4 / deblock=1:-3:-3 / analyse=0x3:0x113 / me=umh / subme=9 / psy=1 / psy_rd=1.00:0.00 / mixed_ref=1 / me_range=16 / chroma_me=1 / trellis=2 / 8x8dct=1 / cqm=0 / deadzone=21,11 / fast_pskip=1 / chroma_qp_offset=-2 / threads=9 / sliced_threads=0 / nr=0 / decimate=1 / interlaced=0 / bluray_compat=0 / constrained_intra=0 / bframes=6 / b_pyramid=2 / b_adapt=2 / b_bias=0 / direct=3 / weightb=1 / open_gop=0 / weightp=2 / keyint=250 / keyint_min=23 / scenecut=40 / intra_refresh=0 / rc_lookahead=60 / rc=crf / mbtree=1 / crf=17.0 / qcomp=0.60 / qpmin=1 / qpmax=69 / qpstep=4 / ip_ratio=1.40 / aq=1:1.00
Язык : English
Default : Нет
Forced : Нет
Аудио #1
Идентификатор : 2
Формат : AC-3
Формат/Информация : Audio Coding 3
Расширение режима : CM (complete main)
Идентификатор кодека : A_AC3
Продолжительность : 2 ч. 10 м.
Вид битрейта : Постоянный
Битрейт : 448 Кбит/сек
Каналы : 6 каналов
Расположение каналов : Front: L C R, Side: L R, LFE
Частота : 48,0 КГц
Битовая глубина : 16 бит
Метод сжатия : С потерями
Размер потока : 418 Мбайт (4%)
Язык : Russian
Default : Да
Forced : Нет
Аудио #2
Идентификатор : 3
Формат : AC-3
Формат/Информация : Audio Coding 3
Расширение режима : CM (complete main)
Идентификатор кодека : A_AC3
Продолжительность : 2 ч. 10 м.
Вид битрейта : Постоянный
Битрейт : 640 Кбит/сек
Каналы : 6 каналов
Расположение каналов : Front: L C R, Side: L R, LFE
Частота : 48,0 КГц
Битовая глубина : 16 бит
Метод сжатия : С потерями
Размер потока : 597 Мбайт (5%)
Язык : English
Default : Нет
Forced : Нет
Остальные раздачи этого фильма (3)
Благодарности релизеру (130)

Торрент:

Статус:

Размер:

Зарегистрирован   [ 2013-06-04 21:55 ]

проверено

11.3 GB

 
 Мнение о фильме (173)

Пред.  1, 2, 3, 4, 5, 6, 7, 8, 9  След.






Ребята посмотрел 15 минут 3Д присутствует но изображение черно-белое и узкий экран
 

Ребята посмотрел 15 минут 3Д присутствует но изображение черно-белое и узкий экран
осталось 6 минут и откроется вся картина )))))
 

Спасибо)))) не дождался!!!
 

Кино так себе, а 3д хорошее.
 

с удовольствием посмотрели фильм всей семьей,отлично,спасибо!
 

Неплохой эффект 3д. Фильм так себе)
 

Фильм хороший ,но 3д не впечатлило)
 

Фильм детский, подростковый. 3D красивое и виды шикарные.
 

не Ах!,но на раз пойдет.3d средненько.Релизёру спс
 

смотреть не пересмотреть
 

Отличный фильм! Большое спасибо с поклоном Dag13 за мастерство, труд и оперативность! Спасибо и трекеру за постоянный поиск новых интересных решений!
 

Очередной добрый детский фильм из Голливуда с отличным 3D,жаль,что у нас такого не снимают........
 

Фильм хороший, очень красочный. Начало фильма немного сбивает с толку, но потом понимаешь как это красиво, переход с чёрно белого в цветное изображение,да ещё и на весь экран медленно расширяется. На большом экране аж дух захватывает от красоты. Но вот 3D, по моим скромным ощущениям, я ожидал намного лучше. Почему создатели фильмов упорно не хотят использовать 3D эфекты на всю катушку? Может я чего то не понимаю и мы настолько избаловались, что поднимаем слишком высоко планку в своих ожиданиях?
 

классный фильм ! всем советую ! необычный сюжет...спасибо автору !
 

Смотрели семьей, всем фильм понравился и 3D хорошее, так что советую! И спасибо автору!
 

Почему у меня в пол экрана?
 

Фильм зачетный!! 3D на высоте
 

Если че, пол экрана в черно белом формате только с начала, такая задумка режиссера, потом все будет ОК.
 

Супер фильм. Не зря ждали! Очень красивая картинка. 3D соответствующее. Сняли бы еще по всем книгам фильмы - было бы шикарно!
 

Хороший позитивный фильм :-)
 

Страница 2 из 9

Пред.  1, 2, 3, 4, 5, 6, 7, 8, 9  След.