Торренты   
 
 


Апартаменты 1303 / Apartment 1303 (Мишель Таверна) [2012 г., BDRip, Crop Anamorph OverUnder]

Рейтинг 3D:
53 голосов
5.2
Рейтинг фильма:
51 голосов
4.6
 
Вы должны быть авторизированы,
чтобы ставить оценки


Апартаменты 1303 / Apartment 1303
Год выпуска: 2012
Страна: США, Канада
Жанр: Ужасы, Триллер
Продолжительность: 01:25:13
Перевод: Профессиональный (полное дублирование)
Режиссер: Мишель Таверна
В ролях: Миша Бартон, Ребекка Де Морнэй, Джулианна Мишель, Кори Севьер, Джон Дил, Джиллиан Олтмэн, Кэтерин Клилэнд, Кэтлин Мэкки, Джессика Малька, Гордон Мастен
Описание: В этой квартире всегда рады новым жильцам. Но никто не знает о легенде проклятия, которое здесь обитает. Говорят в апартаментах N1303, живут призраки матери и дочери, погибшие насильственной смертью. Не найдя покоя, духи мертвых жаждят отомстить своим убийцам. Каждый, кто переступает порог комнаты ужаса, становится их заложником. И еще никому не удалось вырваться из плена смерти…
Внимание: Справа и слева у видеоряда обрезано по 248р, что дает возможность просмотра на полный экран (без черных полос) на телевизорах с соотношением сторон 16:9 без изменения пропорций.
Более подробная информация
Релиз группы:
Формат 3D: OverUnder BDRip, Crop Anamorph
Порядок ракурсов:Правый ракурс верхний
Видео: AVC, High@L4.0, 1920х1080, 23,976 кадра/сек, 8068 Кбит/сек
Аудио: Rus,AC-3, 6 каналов, 384 Кбит/сек, 48,0 КГц
Аудио: Eng, AC-3, 6 каналов, 640 Кбит/сек, 48,0 КГц

Скриншоты




Media Info

Общее
Уникальный идентификатор : 237575199325401190496477450085425533215 (0xB2BB51ACC43101058485AF2BB944D11F)
Полное имя : E:\STEREO CROP\Apartamenty_1303_(CROP)_Rip by Dag13.mkv
Формат : Matroska
Версия формата : Version 2
Размер файла : 5,52 Гбайт
Продолжительность : 1 ч. 25 м.
Общий поток : 9277 Кбит/сек
Дата кодирования : UTC 2013-06-05 08:15:36
Программа кодирования : mkvmerge v3.4.0 ('Rapunzel') сборка от May 15 2010 09:38:20
Библиотека кодирования : libebml v0.8.0 + libmatroska v0.9.0
Видео
Идентификатор : 1
Формат : AVC
Формат/Информация : Advanced Video Codec
Профиль формата : High@L4.0
Параметр CABAC формата : Да
Параметр ReFrames формата : 4 кадра
Идентификатор кодека : V_MPEG4/ISO/AVC
Продолжительность : 1 ч. 25 м.
Битрейт : 8068 Кбит/сек
Ширина : 1920 пикселей
Высота : 1080 пикселей
Соотношение сторон : 16:9
Частота кадров : 23,976 кадра/сек
Цветовое пространство : YUV
Субдискретизация насыщенности : 4:2:0
Битовая глубина : 8 бит
Тип развёртки : Прогрессивная
Бит/(Пиксели*Кадры) : 0.162
Размер потока : 4,80 Гбайт (87%)
Заголовок : Rip by Dag13
Библиотека кодирования : x264 core 120 r2145 748fe16
Настройки программы : cabac=1 / ref=4 / deblock=1:-3:-3 / analyse=0x3:0x113 / me=umh / subme=9 / psy=1 / psy_rd=1.00:0.00 / mixed_ref=1 / me_range=16 / chroma_me=1 / trellis=2 / 8x8dct=1 / cqm=0 / deadzone=21,11 / fast_pskip=1 / chroma_qp_offset=-2 / threads=9 / sliced_threads=0 / nr=0 / decimate=1 / interlaced=0 / bluray_compat=0 / constrained_intra=0 / bframes=6 / b_pyramid=2 / b_adapt=2 / b_bias=0 / direct=3 / weightb=1 / open_gop=0 / weightp=2 / keyint=250 / keyint_min=23 / scenecut=40 / intra_refresh=0 / rc_lookahead=60 / rc=crf / mbtree=1 / crf=17.0 / qcomp=0.60 / qpmin=1 / qpmax=69 / qpstep=4 / ip_ratio=1.40 / aq=1:1.00
Язык : English
Default : Нет
Forced : Нет
Аудио #1
Идентификатор : 2
Формат : AC-3
Формат/Информация : Audio Coding 3
Расширение режима : CM (complete main)
Идентификатор кодека : A_AC3
Продолжительность : 1 ч. 25 м.
Вид битрейта : Постоянный
Битрейт : 384 Кбит/сек
Каналы : 6 каналов
Расположение каналов : Front: L C R, Side: L R, LFE
Частота : 48,0 КГц
Битовая глубина : 16 бит
Метод сжатия : С потерями
Размер потока : 234 Мбайт (4%)
Язык : Russian
Default : Да
Forced : Нет
Аудио #2
Идентификатор : 3
Формат : AC-3
Формат/Информация : Audio Coding 3
Расширение режима : CM (complete main)
Идентификатор кодека : A_AC3
Продолжительность : 1 ч. 25 м.
Вид битрейта : Постоянный
Битрейт : 640 Кбит/сек
Каналы : 6 каналов
Расположение каналов : Front: L C R, Side: L R, LFE
Частота : 48,0 КГц
Битовая глубина : 16 бит
Метод сжатия : С потерями
Размер потока : 390 Мбайт (7%)
Язык : English
Default : Нет
Forced : Нет
Остальные раздачи этого фильма (3)
Благодарности релизеру (30)

Торрент:

Статус:

Размер:

Зарегистрирован   [ 2013-06-05 12:35 ]

проверено

5.52 GB

 
 Мнение о фильме (27)

1, 2  След.






Как фильм? Стоящий?
 

судя по рейтингу на кинопоиске и гроша не стоит)
 

отпишитесь пожалуйста кто смотрел?
 

Купить телик за такие деньги , что бы смотреть такое угрюмое ....... , нонсенс !
 

Более подробно сюжет можно описать то? Понятно, что нонсенс, хотя про что?
 

Более подробно сюжет можно описать то? Понятно, что нонсенс, хотя про что?
http://www.kinopoisk.ru/film/581644/
 

Фильм на разок) Но спасибо и на этом!!!
 

Фильм еще не смотрел целиком,но на перемотке вроде все нормально в плане 3д!
 

Так как все таки заставив себя смог досмотреть до конца, то 2 балла фильм заслужил, а от 3D болели глаза, то ли сильное раздвоение, то ли еще что поэтому 1. Давно такой хрени не смотрел (ИМХО конечно).
 

Сюжет слабоват, потому что предсказуем с самого начала. Но девушки симпатичные, им сочувствуешь, психованная мамаша тоже хороша. Вот 3D вроде оптическое, но не поражает, и даже местами некомфортное. Посмотреть разок можно. Да, и в фильме перепутан порядок ракурсов - первым идет не левый, как обычно, а правый. Не забудьте переключить!
 

Фильм на один раз...
 

смотрел в кинотеатре, еле досмотрел чтобы встать и не уйти, шлакоотвал редкостный! в топку
 

Полный бред!!!!!!!!!!
 

коряво
 

не советую
 

Фильм посмотреть можно один раз
 

Фильм неинтересен
 

полная ерунда избитая тема да еще и снято коряво 3д эффектов ваще ноль
 

На один разок под пивасик
 

Когда сильно скучно смотреть можно есть на что поворчать.
 

Страница 1 из 2

1, 2  След.