Торренты   
 
 


Апартаменты 1303 в 3Д / Apartment 1303 3D (Мишель Таверна / Michael Taverna) [2012, Ужасы, Триллер, BDrip, 1080p]Full OverUnder / Вертикальная стереопара

Рейтинг 3D:
53 голосов
5.2
Рейтинг фильма:
51 голосов
4.6
 
Вы должны быть авторизированы,
чтобы ставить оценки


Апартаменты 1303 / Apartment 1303
Год выпуска: 2012
Страна: США, Канада
Студия: MonteCristo Entertainment, ImageWorks Entertainment
Жанр: Ужасы, Триллер
Продолжительность: 01:25:13
Перевод: Профессиональный (дублированный)
Русские субтитры: нет
Режиссер на русском: Мишель Таверна
Режиссер на английском: Michael Taverna
В ролях: Миша Бартон, Ребекка Де Морнэй, Джулианна Мишель, Кори Севьер, Джон Дил, Джиллиан Олтмэн, Кэтерин Клилэнд, Франческо Джаннини, Кэтлин Мэкки, Джессика Малька
Описание: В этой квартире всегда рады новым жильцам. Но никто не знает о легенде проклятия, которое здесь обитает. Говорят в апартаментах N1303, живут призраки матери и дочери, погибшие насильственной смертью. Не найдя покоя, духи мертвых жаждят отомстить своим убийцам. Каждый, кто переступает порог комнаты ужаса, становится их заложником. И еще никому не удалось вырваться из плена смерти...
Качество: BDrip
Контейнер: MKV
Формат 3D: OverUnder / Вертикальная стереопара
Порядок ракурсов: левый ракурс первый
Видео кодек: x264
Аудио кодек: AC3
Видео: AVC / High@L5.0 / 23,976 fps / 1920х1600 / 12,0 Мбит/сек
Аудио: Русский / AC3 / 48 KHz / 5.1 ch / 384 Kbps
Аудио 2: Английский / AC3 / 48 KHz / 5.1 ch / 640 Kbps
Релиз группы: ВНИМАНИЕ ! На встроенных ТВ-плееерах работать не будет!!!
Железные плееры на которых воспроизводятся полные стереопары:Popcorn C-200 , Dune HD Smart D1 , Dune HD DUO , Dune HD Smart H1 , Dune HD Smart B1 , Dune HD Max , Dune HD TV-303D , Dune HD Base 3D

MediaInfo

Общее
Уникальный идентификатор : 229574909336711008224586947260421547440 (0xACB684ECB9EA6777A9763739C2D0A5B0)
Полное имя : E:\закачки\Apartment 1303..mkv
Формат : Matroska
Версия формата : Version 2
Размер файла : 7,92 Гбайт
Продолжительность : 1 ч. 25 м.
Общий поток : 13,3 Мбит/сек
Дата кодирования : UTC 2013-06-05 20:09:03
Программа кодирования : mkvmerge v3.4.0 ('Rapunzel') сборка от May 15 2010 09:38:20
Библиотека кодирования : libebml v0.8.0 + libmatroska v0.9.0
Видео
Идентификатор : 1
Формат : AVC
Формат/Информация : Advanced Video Codec
Профиль формата : High@L5.0
Параметр CABAC формата : Да
Параметр ReFrames формата : 4 кадра
Идентификатор кодека : V_MPEG4/ISO/AVC
Продолжительность : 1 ч. 25 м.
Битрейт : 12,0 Мбит/сек
Ширина : 1920 пикселей
Высота : 1600 пикселей
Соотношение сторон : 1,200
Частота кадров : 23,976 кадра/сек
Цветовое пространство : YUV
Субдискретизация насыщенности : 4:2:0
Битовая глубина : 8 бит
Тип развёртки : Прогрессивная
Бит/(Пиксели*Кадры) : 0.163
Размер потока : 7,16 Гбайт (90%)
Заголовок : Rip by SeRoGa00
Библиотека кодирования : x264 core 128 r2216kMod 198a7ea
Настройки программы : cabac=1 / ref=4 / deblock=1:-3:-3 / analyse=0x3:0x113 / me=umh / subme=9 / psy=1 / fade_compensate=0.00 / psy_rd=1.00:0.15 / mixed_ref=1 / me_range=16 / chroma_me=1 / trellis=2 / 8x8dct=1 / cqm=0 / deadzone=21,11 / fast_pskip=1 / chroma_qp_offset=-3 / threads=9 / lookahead_threads=1 / sliced_threads=0 / nr=0 / decimate=1 / interlaced=0 / bluray_compat=0 / constrained_intra=0 / bframes=6 / b_pyramid=2 / b_adapt=2 / b_bias=0 / direct=3 / weightb=1 / open_gop=0 / weightp=2 / keyint=250 / keyint_min=23 / scenecut=40 / intra_refresh=0 / rc_lookahead=60 / rc=crf / mbtree=1 / crf=18.0000 / qcomp=0.60 / qpmin=10 / qpmax=69 / qpstep=4 / vbv_maxrate=40000 / vbv_bufsize=40000 / crf_max=0.0 / nal_hrd=none / ip_ratio=1.40 / aq=1:1.00
Язык : English
Аудио #1
Идентификатор : 2
Формат : AC-3
Формат/Информация : Audio Coding 3
Расширение режима : CM (complete main)
Идентификатор кодека : A_AC3
Продолжительность : 1 ч. 25 м.
Вид битрейта : Постоянный
Битрейт : 384 Кбит/сек
Каналы : 6 каналов
Расположение каналов : Front: L C R, Side: L R, LFE
Частота : 48,0 КГц
Битовая глубина : 16 бит
Метод сжатия : С потерями
Размер потока : 234 Мбайт (3%)
Язык : Russian
Аудио #2
Идентификатор : 3
Формат : AC-3
Формат/Информация : Audio Coding 3
Расширение режима : CM (complete main)
Идентификатор кодека : A_AC3
Продолжительность : 1 ч. 25 м.
Вид битрейта : Постоянный
Битрейт : 640 Кбит/сек
Каналы : 6 каналов
Расположение каналов : Front: L C R, Side: L R, LFE
Частота : 48,0 КГц
Битовая глубина : 16 бит
Метод сжатия : С потерями
Размер потока : 390 Мбайт (5%)
Язык : English

Скриншоты


Остальные раздачи этого фильма (3)
Благодарности релизеру (7)

Торрент:

Статус:

Размер:

Зарегистрирован   [ 2013-06-06 12:09 ]

проверено

7.92 GB

 
 Мнение о фильме (27)

1, 2  След.






Как фильм? Стоящий?
 

судя по рейтингу на кинопоиске и гроша не стоит)
 

отпишитесь пожалуйста кто смотрел?
 

Купить телик за такие деньги , что бы смотреть такое угрюмое ....... , нонсенс !
 

Более подробно сюжет можно описать то? Понятно, что нонсенс, хотя про что?
 

Более подробно сюжет можно описать то? Понятно, что нонсенс, хотя про что?
http://www.kinopoisk.ru/film/581644/
 

Фильм на разок) Но спасибо и на этом!!!
 

Фильм еще не смотрел целиком,но на перемотке вроде все нормально в плане 3д!
 

Так как все таки заставив себя смог досмотреть до конца, то 2 балла фильм заслужил, а от 3D болели глаза, то ли сильное раздвоение, то ли еще что поэтому 1. Давно такой хрени не смотрел (ИМХО конечно).
 

Сюжет слабоват, потому что предсказуем с самого начала. Но девушки симпатичные, им сочувствуешь, психованная мамаша тоже хороша. Вот 3D вроде оптическое, но не поражает, и даже местами некомфортное. Посмотреть разок можно. Да, и в фильме перепутан порядок ракурсов - первым идет не левый, как обычно, а правый. Не забудьте переключить!
 

Фильм на один раз...
 

смотрел в кинотеатре, еле досмотрел чтобы встать и не уйти, шлакоотвал редкостный! в топку
 

Полный бред!!!!!!!!!!
 

коряво
 

не советую
 

Фильм посмотреть можно один раз
 

Фильм неинтересен
 

полная ерунда избитая тема да еще и снято коряво 3д эффектов ваще ноль
 

На один разок под пивасик
 

Когда сильно скучно смотреть можно есть на что поворчать.
 

Страница 1 из 2

1, 2  След.