Торренты   
 
 

 

Топ Кэт / Top Cat (Альберто Мар) [2011 г., BDRip, Full OverUnder]

Рейтинг 3D:
5 голосов
7.9
Рейтинг фильма:
4 голосов
6.4
 
Вы должны быть авторизированы,
чтобы ставить оценки


Топ Кэт / Top Cat
Год выпуска: 2011
Страна: Мексика, Аргентина, Великобритания
Жанр: мультфильм, боевик, комедия, семейный
Продолжительность: 01:30:19
Перевод: Профессиональный (полное дублирование)
Режиссер: Альберто Мар
В ролях: Джейсон Харрис, Крис Эджерли, Билл Лобли, Бен Дискин, Мэттью Пьяцци, Мелисса Дисней, Боб Калибан, Брайан МакФедден, Фред Татаскьор, Крис Филлипс
Описание: Супер Кот и его озорная шайка бродячих котов сталкиваются с новым шефом полиции и своим старым заклятым врагом — офицером Дибблом. Полиция полна решимости помешать проделкам Кота и надеется выдворить его из любимого переулка. Но как бы они не старались, команде Супер Кота всегда удается обвести блюстителей закона вокруг пальца.
Релиз группы:
Формат 3D: OverUnder BDRip, Full
Видео: AVC, High@L4.0, 1920х2160, 23,976 кадра/сек, 8960 Кбит/сек
Аудио: Rus, DTS, 6 каналов, 1510 Кбит/сек, 48,0 КГц
Аудио: Rus, AC3, 2 канала, 192 Кбит/сек, 48,0 КГц (двухголоска Чип и Дейл)
Аудио: Eng, DTS, 6 каналов, 755 Кбит/сек, 48,0 КГц

Скриншоты




Media Info

Общее
Уникальный идентификатор : 216338751273027371708566641245696583723 (0xA2C153F29E33E084A0E3F4BBAA44682B)
Полное имя : E:\STEREO\Top Cat_1080p_Rip by Dag13.mkv
Формат : Matroska
Версия формата : Version 2
Размер файла : 7,35 Гбайт
Продолжительность : 1 ч. 30 м.
Общий поток : 11,6 Мбит/сек
Дата кодирования : UTC 2013-06-06 03:44:30
Программа кодирования : mkvmerge v3.4.0 ('Rapunzel') сборка от May 15 2010 09:38:20
Библиотека кодирования : libebml v0.8.0 + libmatroska v0.9.0
Видео
Идентификатор : 1
Формат : AVC
Формат/Информация : Advanced Video Codec
Профиль формата : High@L5.0
Параметр CABAC формата : Да
Параметр ReFrames формата : 4 кадра
Идентификатор кодека : V_MPEG4/ISO/AVC
Продолжительность : 1 ч. 30 м.
Битрейт : 8960 Кбит/сек
Ширина : 1920 пикселей
Высота : 2160 пикселей
Соотношение сторон : 0,889
Частота кадров : 23,976 кадра/сек
Цветовое пространство : YUV
Субдискретизация насыщенности : 4:2:0
Битовая глубина : 8 бит
Тип развёртки : Прогрессивная
Бит/(Пиксели*Кадры) : 0.090
Размер потока : 5,65 Гбайт (77%)
Заголовок : Rip by Dag13
Библиотека кодирования : x264 core 120 r2145 748fe16
Настройки программы : cabac=1 / ref=4 / deblock=1:-3:-3 / analyse=0x3:0x113 / me=umh / subme=9 / psy=1 / psy_rd=1.00:0.00 / mixed_ref=1 / me_range=16 / chroma_me=1 / trellis=2 / 8x8dct=1 / cqm=0 / deadzone=21,11 / fast_pskip=1 / chroma_qp_offset=-2 / threads=9 / sliced_threads=0 / nr=0 / decimate=1 / interlaced=0 / bluray_compat=0 / constrained_intra=0 / bframes=6 / b_pyramid=2 / b_adapt=2 / b_bias=0 / direct=3 / weightb=1 / open_gop=0 / weightp=2 / keyint=250 / keyint_min=23 / scenecut=40 / intra_refresh=0 / rc_lookahead=60 / rc=crf / mbtree=1 / crf=17.0 / qcomp=0.60 / qpmin=1 / qpmax=69 / qpstep=4 / ip_ratio=1.40 / aq=1:1.00
Язык : English
Default : Нет
Forced : Нет
Аудио #1
Идентификатор : 2
Формат : DTS
Формат/Информация : Digital Theater Systems
Идентификатор кодека : A_DTS
Продолжительность : 1 ч. 30 м.
Вид битрейта : Постоянный
Битрейт : 1510 Кбит/сек
Каналы : 6 каналов
Расположение каналов : Front: L C R, Side: L R, LFE
Частота : 48,0 КГц
Битовая глубина : 16 бит
Метод сжатия : С потерями
Размер потока : 975 Мбайт (13%)
Язык : Russian
Default : Да
Forced : Нет
Аудио #2
Идентификатор : 3
Формат : AC-3
Формат/Информация : Audio Coding 3
Расширение режима : CM (complete main)
Идентификатор кодека : A_AC3
Продолжительность : 1 ч. 30 м.
Вид битрейта : Постоянный
Битрейт : 192 Кбит/сек
Каналы : 2 канала
Расположение каналов : Front: L R
Частота : 48,0 КГц
Битовая глубина : 16 бит
Метод сжатия : С потерями
Размер потока : 124 Мбайт (2%)
Язык : Russian
Default : Нет
Forced : Нет
Аудио #3
Идентификатор : 4
Формат : DTS
Формат/Информация : Digital Theater Systems
Идентификатор кодека : A_DTS
Продолжительность : 1 ч. 30 м.
Вид битрейта : Постоянный
Битрейт : 755 Кбит/сек
Каналы : 6 каналов
Расположение каналов : Front: L C R, Side: L R, LFE
Частота : 48,0 КГц
Битовая глубина : 24 бит
Метод сжатия : С потерями
Размер потока : 487 Мбайт (6%)
Язык : English
Default : Нет
Forced : Нет
На встроенных ТВ-плейерах показывать НЕ будет!!!
Остальные раздачи этого фильма (2)
Благодарности релизеру (5)

Торрент:

Статус:

Размер:

Зарегистрирован   [ 2013-06-06 12:15 ]

проверено

7.35 GB

 
 Мнение о фильме (2)





Так для встроенных был уже давно. Больше 10 минут просмотра этого "шедевра" выдержать не смог. Плоские фигуры персонажей перемещаются в хорошем, в принципе, объеме, а по содержанию полная тупость (может для латиносов и пойдет).
 

забавный мульт. спасибо!