Торренты   
 
 

 

Джeк – пoкopитeль вeликaнoв / Jасk thе Giаnt Slауеr (Бpaйaн Cингep) [2013 г., BDRip, Crop Anamorph OverUnder]

Рейтинг 3D:
301 голосов
7.4
Рейтинг фильма:
301 голосов
7.6
 
Вы должны быть авторизированы,
чтобы ставить оценки


Джeк – пoкopитeль вeликaнoв / Jасk thе Giаnt Slауеr
Год выпуска: 2013
Страна: США
Жанр: Фэнтези, Приключения
Продолжительность: 1:54:21
Перевод: Профессиональный (полное дублирование) Чистый звук
Режиссер: Бpaйaн Cингep
В ролях: Николас Холт, Элинор Томлинсон, Юэн МакГрегор, Стэнли Туччи, Иэн МакШейн, Билл Найи, Джон Кассир, Бен Дэниелс, Юэн Бремнер, Эдди Марсан
Описание: История начинается с похищения принцессы, что грозит нарушить хрупкий мир между людьми и великанами. Юный фермер возглавляет вылазку в царство гигантов в надежде спасти девушку.
Внимание: Справа и слева у видеоряда обрезано по 248р, что дает возможность просмотра на полный экран (без черных полос) на телевизорах с соотношением сторон 16:9 без изменения пропорций.
Более подробная информация
Релиз группы:
Формат 3D: OverUnder BDRip, Crop Anamorph
Видео: AVC, High@L4.0, 1920х1080, 23,976 кадра/сек, 11,2 Мбит/сек
Аудио: Rus, AC-3, 6 каналов, 448 Кбит/сек, 48,0 КГц
Аудио: Eng, AC-3, 6 каналов, 448 Кбит/сек, 48,0 КГц

Скриншоты




Media Info

Общее
Уникальный идентификатор : 243442006921534703812626369897778405925 (0xB725399F2EDD7AB58E22960DBFA46225)
Полное имя : E:\STEREO CROP\Jack The Giant Slayer_(CROP)_ Rip by Dag13.mkv
Формат : Matroska
Версия формата : Version 2
Размер файла : 9,90 Гбайт
Продолжительность : 1 ч. 54 м.
Общий поток : 12,4 Мбит/сек
Дата кодирования : UTC 2013-06-07 03:20:09
Программа кодирования : mkvmerge v3.4.0 ('Rapunzel') сборка от May 15 2010 09:38:20
Библиотека кодирования : libebml v0.8.0 + libmatroska v0.9.0
Видео
Идентификатор : 1
Формат : AVC
Формат/Информация : Advanced Video Codec
Профиль формата : High@L4.0
Параметр CABAC формата : Да
Параметр ReFrames формата : 4 кадра
Идентификатор кодека : V_MPEG4/ISO/AVC
Продолжительность : 1 ч. 54 м.
Битрейт : 11,2 Мбит/сек
Ширина : 1920 пикселей
Высота : 1080 пикселей
Соотношение сторон : 16:9
Частота кадров : 23,976 кадра/сек
Цветовое пространство : YUV
Субдискретизация насыщенности : 4:2:0
Битовая глубина : 8 бит
Тип развёртки : Прогрессивная
Бит/(Пиксели*Кадры) : 0.226
Размер потока : 8,98 Гбайт (91%)
Заголовок : Rip by Dag13
Библиотека кодирования : x264 core 120 r2145 748fe16
Настройки программы : cabac=1 / ref=4 / deblock=1:-3:-3 / analyse=0x3:0x113 / me=umh / subme=9 / psy=1 / psy_rd=1.00:0.00 / mixed_ref=1 / me_range=16 / chroma_me=1 / trellis=2 / 8x8dct=1 / cqm=0 / deadzone=21,11 / fast_pskip=1 / chroma_qp_offset=-2 / threads=9 / sliced_threads=0 / nr=0 / decimate=1 / interlaced=0 / bluray_compat=0 / constrained_intra=0 / bframes=6 / b_pyramid=2 / b_adapt=2 / b_bias=0 / direct=3 / weightb=1 / open_gop=0 / weightp=2 / keyint=250 / keyint_min=23 / scenecut=40 / intra_refresh=0 / rc_lookahead=60 / rc=crf / mbtree=1 / crf=17.0 / qcomp=0.60 / qpmin=1 / qpmax=69 / qpstep=4 / ip_ratio=1.40 / aq=1:1.00
Язык : English
Default : Нет
Forced : Нет
Аудио #1
Идентификатор : 2
Формат : AC-3
Формат/Информация : Audio Coding 3
Расширение режима : CM (complete main)
Идентификатор кодека : A_AC3
Продолжительность : 1 ч. 54 м.
Вид битрейта : Постоянный
Битрейт : 448 Кбит/сек
Каналы : 6 каналов
Расположение каналов : Front: L C R, Side: L R, LFE
Частота : 48,0 КГц
Битовая глубина : 16 бит
Метод сжатия : С потерями
Размер потока : 366 Мбайт (4%)
Язык : Russian
Default : Да
Forced : Нет
Аудио #2
Идентификатор : 3
Формат : AC-3
Формат/Информация : Audio Coding 3
Расширение режима : CM (complete main)
Идентификатор кодека : A_AC3
Продолжительность : 1 ч. 54 м.
Вид битрейта : Постоянный
Битрейт : 448 Кбит/сек
Каналы : 6 каналов
Расположение каналов : Front: L C R, Side: L R, LFE
Частота : 48,0 КГц
Битовая глубина : 16 бит
Метод сжатия : С потерями
Размер потока : 366 Мбайт (4%)
Язык : English
Default : Нет
Forced : Нет
Остальные раздачи этого фильма (3)
Благодарности релизеру (126)

Торрент:

Статус:

Размер:

Зарегистрирован   [ 2013-06-07 11:03 ]

проверено

9.9 GB

 
 Мнение о фильме (93)

Пред.  1, 2, 3, 4, 5  След.






От старой сказки одни бобы остались, но в целом фильм неплохой, мне понравился и 3D на уровне.
 

Посмотрел с удовольствием.
 

Фильм захватывающий на мой взгляд, концовка банальная, 3D глубина отличная, вылет 1 был замечен:)
 
Владислав2507 Профиль 11-Июл-2013 17:10

отлично! люблю сказки. 3D - хорошее, есть вылеты.
 

На мой взгляд режиссер перестарался с крупными планами грязных и сопливых гигантов, а так - хороший фильм ))
 

на 1 раз
 

Звук будет лицензия?
 

А мне понравилось! Если фильм 3D - это не значит, что в нем обязательно куча вылетов должно быть. Если нужны вылеты, тогда ролики демонстрационные качайте. Фильм просто обалденный. В как раз в воскресный вечер всей семьей посмотреть. Мы боялись на секунду от телевизора отойти, на одном дыхании просмотрели. Качайте обязательно, не пожалеете! 3D тоже нормальное, по крайней мере, очки снимать не хочется. Спасибо!
 

Полностью согласен с предыдущим постом. И фильм понравился, и 3D нормальное. Глаза не выламывало, как на некоторых раздачах. Вполне комфортный просмотр.
Не понимаю ворчания насчёт предсказуемости сюжета. Если увидите, что это сказка, не качайте и не смотрите! Сюжет известен! Добро победит зло! :)
 

понравился фильм, и зд порадовало
 

сам фильм оказался простым попкормом - ничего особенного , одни спецэфекты.
по поводу 3д : есть моменты когда его видно , но это не более 1% фильма.
то ли оператор то ли режиссёр делая раскадровку не думали о 3д, так как нет сцен где бы это смотрелось эффектно.
 

В целом, для разнообразия, очень даже не плохо. 3D в некоторых сценах очень глубокое а в некоторых его практически нет.
 

Фильм хороший, понравился. 3D нормальное, но до клипов LG всё еще далеко..
 

подскажите плиз !!!3D на весь экран ?если нет ,будет ли на весь экран ?
 

3д вполне смотрибельно. Фильм сделан качественно. Главное смотреть его как сказку с соответствующим сюжетом
 

спасибо
 

фильм понравился, да и 3д не плохое. Смотреть можно.
 

Не фонтан фильмец
 
Алексей "51" Профиль 15-Авг-2013 22:31

Фильм нормуль, 3D плохое.
 

Сюжет хорош, для 3D самое то, с целом впечатлил.
 

Страница 4 из 5

Пред.  1, 2, 3, 4, 5  След.