Торренты   
 
 

 

Джек – покоритель великанов / Jack the Giant Slayer (Брайан Сингер) [2013 г., BDrip, Half1080p, Anamorph OverUnder]

Рейтинг 3D:
301 голосов
7.4
Рейтинг фильма:
301 голосов
7.6
 
Вы должны быть авторизированы,
чтобы ставить оценки


© Закрыто правообладателем
Год выпуска: 2013
Страна: США
Жанр: фэнтези, приключения
Продолжительность: 1:54:21
Перевод: Профессиональный (полное дублирование)
Режиссер: Брайан Сингер
В ролях: Николас Холт, Эван МакГрегор, Билл Найи, Стэнли Туччи, Иэн МакШейн, Уорвик Дэвис, Эдди Марсан, Юэн Бремнер, Элинор Томлинсон, Джон Кассир
Описание: История начинается с похищения принцессы, что грозит нарушить хрупкий мир между людьми и великанами. Юный фермер возглавляет вылазку в царство гигантов в надежде спасти девушку.
Качество: BDrip by StarStranger
Контейнер: MKV
Формат 3D: Anamorph OverUnder / Вертикальная анаморфная стереопара
Порядок ракурсов: левый ракурс первый
Видео кодек: x264
Аудио кодек: AC3
Видео: AVC, High@L4.1, 1920х1080, 23,976 кадра/сек, 9076 Кбит/сек
Аудио:
Rus, AC-3, 6 каналов, 640 Кбит/сек, 48,0 КГц | Dub
Ukr, AC-3, 6 каналов, 640 Кбит/сек, 48,0 КГц | Dub
Eng, AC-3, 6 каналов, 640 Кбит/сек, 48,0 КГц
Cубтитры: Russian (Forced, Full), English (Full, SDH)

Скриншоты

Media Info

Общее
Уникальный идентификатор : 183618493891949337178267458044161783968 (0x8A23A2B4E92705F9A5C1A5A393BD78A0)
Полное имя : H:\JackTheGiantSlayer.3D.2013.BD3DRip.Half.OU.x264.AC3.3D-RuGroup.mkv
Формат : Matroska
Версия формата : Version 2
Размер файла : 8,95 Гбайт
Продолжительность : 1 ч. 54 м.
Общий поток : 11,2 Мбит/сек
Название фильма : Jасk thе Giаnt Slауеr 3D release 3D-RuGroup rip by StarStranger aka itsamna
Дата кодирования : UTC 2013-07-15 17:22:01
Программа кодирования : mkvmerge v3.4.0 ('Rapunzel') сборка от May 15 2010 09:38:20
Библиотека кодирования : libebml v0.8.0 + libmatroska v0.9.0
Видео
Идентификатор : 1
Формат : AVC
Формат/Информация : Advanced Video Codec
Профиль формата : High@L4.1
Параметр CABAC формата : Да
Параметр ReFrames формата : 4 кадра
Идентификатор кодека : V_MPEG4/ISO/AVC
Продолжительность : 1 ч. 54 м.
Битрейт : 9059 Кбит/сек
Ширина : 1920 пикселей
Высота : 1080 пикселей
Соотношение сторон : 16:9
Режим частоты кадров : Постоянный
Частота кадров : 23,976 кадра/сек
Цветовое пространство : YUV
Субдискретизация насыщенности : 4:2:0
Битовая глубина : 8 бит
Тип развёртки : Прогрессивная
Бит/(Пиксели*Кадры) : 0.182
Размер потока : 7,24 Гбайт (81%)
Библиотека кодирования : x264 core 130 r2273 b3065e6
Настройки программы : cabac=1 / ref=4 / deblock=1:-3:-3 / analyse=0x3:0x133 / me=umh / subme=9 / psy=1 / psy_rd=1.00:0.15 / mixed_ref=1 / me_range=32 / chroma_me=1 / trellis=2 / 8x8dct=1 / cqm=0 / deadzone=21,11 / fast_pskip=0 / chroma_qp_offset=-3 / threads=12 / lookahead_threads=2 / sliced_threads=0 / nr=0 / decimate=1 / interlaced=0 / bluray_compat=0 / constrained_intra=0 / bframes=7 / b_pyramid=2 / b_adapt=2 / b_bias=0 / direct=3 / weightb=1 / open_gop=0 / weightp=2 / keyint=250 / keyint_min=23 / scenecut=40 / intra_refresh=0 / rc_lookahead=60 / rc=crf / mbtree=1 / crf=17.0 / qcomp=0.60 / qpmin=0 / qpmax=69 / qpstep=4 / vbv_maxrate=50000 / vbv_bufsize=62500 / crf_max=0.0 / nal_hrd=none / ip_ratio=1.40 / aq=1:0.90
Default : Нет
Forced : Нет
Аудио #1
Идентификатор : 2
Формат : AC-3
Формат/Информация : Audio Coding 3
Расширение режима : CM (complete main)
Параметр Endianness формата : Big
Идентификатор кодека : A_AC3
Продолжительность : 1 ч. 54 м.
Вид битрейта : Постоянный
Битрейт : 640 Кбит/сек
Каналы : 6 каналов
Расположение каналов : Front: L C R, Side: L R, LFE
Частота : 48,0 КГц
Битовая глубина : 16 бит
Метод сжатия : С потерями
Размер потока : 524 Мбайт (6%)
Язык : Russian
Default : Нет
Forced : Нет
Аудио #2
Идентификатор : 3
Формат : AC-3
Формат/Информация : Audio Coding 3
Расширение режима : CM (complete main)
Параметр Endianness формата : Big
Идентификатор кодека : A_AC3
Продолжительность : 1 ч. 54 м.
Вид битрейта : Постоянный
Битрейт : 640 Кбит/сек
Каналы : 6 каналов
Расположение каналов : Front: L C R, Side: L R, LFE
Частота : 48,0 КГц
Битовая глубина : 16 бит
Метод сжатия : С потерями
Размер потока : 524 Мбайт (6%)
Язык : Ukrainian
Default : Нет
Forced : Нет
Аудио #3
Идентификатор : 4
Формат : AC-3
Формат/Информация : Audio Coding 3
Расширение режима : CM (complete main)
Параметр Endianness формата : Big
Идентификатор кодека : A_AC3
Продолжительность : 1 ч. 54 м.
Вид битрейта : Постоянный
Битрейт : 640 Кбит/сек
Каналы : 6 каналов
Расположение каналов : Front: L C R, Side: L R, LFE
Частота : 48,0 КГц
Битовая глубина : 16 бит
Метод сжатия : С потерями
Размер потока : 524 Мбайт (6%)
Язык : English
Default : Нет
Forced : Нет
Текст #1
Идентификатор : 5
Формат : UTF-8
Идентификатор кодека : S_TEXT/UTF8
Идентификатор кодека/Информация : UTF-8 Plain Text
Заголовок : Forced
Язык : Russian
Default : Нет
Forced : Нет
Текст #2
Идентификатор : 6
Формат : UTF-8
Идентификатор кодека : S_TEXT/UTF8
Идентификатор кодека/Информация : UTF-8 Plain Text
Заголовок : Full
Язык : Russian
Default : Нет
Forced : Нет
Текст #3
Идентификатор : 7
Формат : ASS
Идентификатор кодека : S_TEXT/ASS
Идентификатор кодека/Информация : Advanced Sub Station Alpha
Метод сжатия : Без потерь
Заголовок : Full
Язык : English
Default : Нет
Forced : Нет
Текст #4
Идентификатор : 8
Формат : ASS
Идентификатор кодека : S_TEXT/ASS
Идентификатор кодека/Информация : Advanced Sub Station Alpha
Метод сжатия : Без потерь
Заголовок : SDH
Язык : English
Default : Нет
Forced : Нет
Меню
00:00:00.000 : en:00:00:00.000
00:10:21.371 : en:00:10:21.371
00:19:23.746 : en:00:19:23.746
00:29:52.207 : en:00:29:52.207
00:38:55.375 : en:00:38:55.375
00:49:24.879 : en:00:49:24.879
00:59:35.489 : en:00:59:35.489
01:09:26.287 : en:01:09:26.287
01:20:39.168 : en:01:20:39.168
01:29:51.303 : en:01:29:51.303
01:39:02.812 : en:01:39:02.812
01:45:57.726 : en:01:45:57.726
--Релиз группы:

Проверено на встроенном плейере ТВ LG 42LW4500
--16.07.2013 - Релиз обновлён - русская дорога заменена на дорогу с BD3D CEE, добавлена украинская дорожка и пакет субтитров.
Желающие, скачайте заново торрент-файл.
Остальные раздачи этого фильма (3)
Благодарности релизеру (45)

Торрент:

Статус:

Размер:

Зарегистрирован   [ 2013-07-16 10:05 ]

© закрыто правообладателем

8.95 GB

 
 Мнение о фильме (93)

Пред.  1, 2, 3, 4, 5  След.






отличный фильм,посмотрел с удовольствием.3d нормальное.без вылетов
 

Спасибо за раздачу,фильм понравился,свежый!
 

Сказка хорошая. Но снято как-то не для 3D. То есть само качество 3D хорошее, но почти нет сцен в котором оно могло бы раскрыться.
 

Фильм не плохой, 3d, нормальное, и качество рипа, как всегда отличное. Спасибо огромное!!!
 

Фильм вполне нормальный, на разок точно хватит..., 3d слабенькое.
 

да нормальное 3д!Вам бы все вылеты!!!:)
 

Так себе!На один раз!
 

Фильм очень понравился, 3D не впечатлило, "недостаточный эффект". Рекомендую к просмотру!
 

Друзья мои,тем кому нужны постоянные "вылеты",смотрите мультфильмы,там их больше!!!А в фильме более важна глубина по-моему....
 

С семьей посмотреть - отличный фильм!
 

m@c, и меня тоже что-то не впечатлило:(смотрел через проектор
 

Мне понравилось
 

Фильм прикольный, но на один раз посмотреть.
3Д - ерундовое, смотрел как в очках так и без, разницы не ощутил практически никакой.
 

Дочке понравился
 

Нормальный фильм!!! 3D на уровне, посмотрел на одном дыхании, в коллекцию однозначно.
 

Неплохая сказка. 3D в норме.
 

Фильм хороший для всех возростов.3д норм.большое СПАСИБО за работу)))
 

хороший фильм, но перетягивывание каната 20мин это пипец))))
 

Клевая сказка! 3D на высоте, глубина отменная!
 

Классный фильм, не скажу ничего плохого, а хорошего - сколько угодно. Сюжет старый, но захватывает, тем не менее. 3D вполне неплохое, не аттракцион, но все же. Спецэффекты сами - достойнейшие. Так что, в коллекцию без права на удаление!
 

Страница 2 из 5

Пред.  1, 2, 3, 4, 5  След.