Торренты   
 
 

 

Джек – покоритель великанов / Jack the Giant Slayer(Бpaйaн Cингep / Вrуаn Singеr) [2013, Фэнтези, Приключения, BDrip, 1080p]Full OverUnder / Вертикальная стереопара

Рейтинг 3D:
301 голосов
7.4
Рейтинг фильма:
301 голосов
7.6
 
Вы должны быть авторизированы,
чтобы ставить оценки


Джeк – пoкopитeль вeликaнoв / Jасk thе Giаnt Slауеr
Год выпуска: 2013
Страна: США
Студия: Warner Bros. Pictures, New Line Cinema, Legendary, Original Film, Bad Hat Harry
Жанр: Фэнтези, Приключения
Продолжительность: 1:54:21
Перевод: Профессиональный (дублированный)
Русские субтитры: нет
Режиссер на русском: Бpaйaн Cингep
Режиссер на английском: Вrуаn Singеr
В ролях: Николас Холт, Эван МакГрегор, Билл Найи, Стэнли Туччи, Иэн МакШейн, Уорвик Дэвис, Эдди Марсан, Юэн Бремнер, Элинор Томлинсон, Джон Кассир
Описание: История начинается с похищения принцессы, что грозит нарушить хрупкий мир между людьми и великанами. Юный фермер возглавляет вылазку в царство гигантов в надежде спасти девушку.
Сэмпл: http://www.sendspace.com/file/1s30jt
Качество: BDrip
Контейнер: MKV
Формат 3D: OverUnder / Вертикальная стереопара
Порядок ракурсов: левый ракурс первый
Видео кодек: x264
Аудио кодек: AC3
Видео: AVC / High@L5.0 / 23,976 fps / 1920х1600 / 14,3 Мбит/сек
Аудио: Русский / AC3 / 48 KHz / 5.1 ch / 640 Kbps
Аудио 2: Английский / AC3 / 48 KHz / 5.1 ch / 640 Kbps
Релиз группы: ВНИМАНИЕ ! На встроенных ТВ-плееерах работать не будет!!!
Железные плееры на которых воспроизводятся полные стереопары:Popcorn C-200 , Dune HD Smart D1 , Dune HD DUO , Dune HD Smart H1 , Dune HD Smart B1 , Dune HD Max , Dune HD TV-303D , Dune HD Base 3D

MediaInfo

Общее
Уникальный идентификатор : 232910054173434408011761799198379230816 (0xAF38D842B9AC555E99A948E1EBDE4660)
Полное имя : E:\закачки\Jack the Giant Slayer.Rip by SeRoGa00.mkv
Формат : Matroska
Версия формата : Version 2
Размер файла : 12,7 Гбайт
Продолжительность : 1 ч. 54 м.
Общий поток : 15,9 Мбит/сек
Дата кодирования : UTC 2013-06-28 20:20:17
Программа кодирования : mkvmerge v3.4.0 ('Rapunzel') сборка от May 15 2010 09:38:20
Библиотека кодирования : libebml v0.8.0 + libmatroska v0.9.0
Видео
Идентификатор : 1
Формат : AVC
Формат/Информация : Advanced Video Codec
Профиль формата : High@L5.0
Параметр CABAC формата : Да
Параметр ReFrames формата : 4 кадра
Идентификатор кодека : V_MPEG4/ISO/AVC
Продолжительность : 1 ч. 54 м.
Битрейт : 14,3 Мбит/сек
Ширина : 1920 пикселей
Высота : 1600 пикселей
Соотношение сторон : 1,200
Частота кадров : 23,976 кадра/сек
Цветовое пространство : YUV
Субдискретизация насыщенности : 4:2:0
Битовая глубина : 8 бит
Тип развёртки : Прогрессивная
Бит/(Пиксели*Кадры) : 0.194
Размер потока : 11,4 Гбайт (90%)
Библиотека кодирования : x264 core 128 r2216kMod 198a7ea
Настройки программы : cabac=1 / ref=4 / deblock=1:-3:-3 / analyse=0x3:0x113 / me=umh / subme=9 / psy=1 / fade_compensate=0.00 / psy_rd=1.00:0.15 / mixed_ref=1 / me_range=16 / chroma_me=1 / trellis=2 / 8x8dct=1 / cqm=0 / deadzone=21,11 / fast_pskip=1 / chroma_qp_offset=-3 / threads=9 / lookahead_threads=1 / sliced_threads=0 / nr=0 / decimate=1 / interlaced=0 / bluray_compat=0 / constrained_intra=0 / bframes=6 / b_pyramid=2 / b_adapt=2 / b_bias=0 / direct=3 / weightb=1 / open_gop=0 / weightp=2 / keyint=250 / keyint_min=23 / scenecut=40 / intra_refresh=0 / rc_lookahead=60 / rc=crf / mbtree=1 / crf=18.0000 / qcomp=0.60 / qpmin=10 / qpmax=69 / qpstep=4 / vbv_maxrate=40000 / vbv_bufsize=40000 / crf_max=0.0 / nal_hrd=none / ip_ratio=1.40 / aq=1:1.00
Аудио #1
Идентификатор : 2
Формат : AC-3
Формат/Информация : Audio Coding 3
Расширение режима : CM (complete main)
Идентификатор кодека : A_AC3
Продолжительность : 1 ч. 54 м.
Вид битрейта : Постоянный
Битрейт : 640 Кбит/сек
Каналы : 6 каналов
Расположение каналов : Front: L C R, Side: L R, LFE
Частота : 48,0 КГц
Битовая глубина : 16 бит
Метод сжатия : С потерями
Размер потока : 523 Мбайт (4%)
Язык : Russian
Аудио #2
Идентификатор : 3
Формат : AC-3
Формат/Информация : Audio Coding 3
Расширение режима : CM (complete main)
Идентификатор кодека : A_AC3
Продолжительность : 1 ч. 54 м.
Вид битрейта : Постоянный
Битрейт : 640 Кбит/сек
Каналы : 6 каналов
Расположение каналов : Front: L C R, Side: L R, LFE
Частота : 48,0 КГц
Битовая глубина : 16 бит
Метод сжатия : С потерями
Размер потока : 523 Мбайт (4%)
Язык : English

Скриншоты


Остальные раздачи этого фильма (3)
Благодарности релизеру (29)

Торрент:

Статус:

Размер:

Зарегистрирован   [ 2013-07-13 11:20 ]

проверено

12.69 GB

 
 Мнение о фильме (93)

1, 2, 3, 4, 5  След.






3д опять не впечатлило, а так хотелось...
 

Старая сказка на новый лад.Ничего смертельного,но и ничего плохого.3d - на уровне.Спасибо.
 

[url]адаптация старой сказки " джек и бобовое зернышко "[/url]
Джек в стране чудес?
 

Крепкий середнячок, пересматривать явно не захочется, но качество картинки на высоте, сюжет, хоть и предсказуем, но отвращения не вызывает. Посмотреть разок стоит.
П.С. описание сюжета фильма не соответствует действительности. Начинается все не с похищении принцессы, в поисках приключений и от скуки убегает из дому, случайно попадает на верх, к великанам, где была схвачена и опознана как принцесса. Несмотря на высокий сан, иной участи как завтрак великаны ей не готовили.
 

Фильм получился довольно зрелищным, смотреть точно не скучно. 3D хорошее, с приличной глубиной и объемом, правда, вылетов почти нет. Совсем недавно скачивал и смотрел другую сказку, про Оза - так разница очень заметна, как в сюжете ( вернее, в сценарии фильма ), так и в зрелищности и эффектах, и уж конечно, в качестве 3D.
 

alexmiks, да, именно так. Насколько помню, "Джек в стране чудес" - японский мультфильм ( не анимэ ), который шел в прокате в кинотеатрах в СССР, по этому же сюжету.
Неплохой, кстати.
 

Хороший добрый фильм, 3д хорошее, но без особых приколюшек
 

Фильм в целом хороший.3D эффекты неплохие , хотя и без особых вылетов.
 

фильм супер! концовку когда они сражались скопировали вроде у война богов или битва титанов. 3д норм вылетов нормально было короче супер!!!!!!!!
 

смотрел в 2д фильм нормальный,лет 40 назад описался от счастья
 

спасиба автору оценим
 

Фильм прикольный, но на один раз.
3Д - никакущее, с середины где-то смотрели без него разницы не заметили.
 

Фильм прикольный, но на один раз.
3Д - никакущее, с середины где-то смотрели без него разницы не заметили.
+1
 

Спасибо. 3D неплохое, но фильмец до конца не досмотрел с первого раза, возможно позже вернусь к просмотру..
 

филь хороший 3D эфекты тоже отлично но мало
 

3D нормальное, вылеты ближе к концу фильма. Сюжет тривиальный для одноразового просмотра.
Маленьким детям не смотреть!
 

Фильм в целом не плохой. Но по поводу 3D, я ожидал большего.
 

ни сама сказка ,ни 3D невпечетлило
 

Фильм классный, а вот 3D что то не впечатлило, глубина хорошая, а вылетов как таковых нет.
 

3D что то не впечатлило
 

Страница 1 из 5

1, 2, 3, 4, 5  След.