Торренты   
 
 

 

Гравитация в 3D, Трейлер / Gravity in 3D, Trailer [2013 г., DCPrip, Anamorph OverUnder]

Рейтинг 3D:
42 голосов
8.3
Рейтинг фильма:
36 голосов
8.4
 
Вы должны быть авторизированы,
чтобы ставить оценки


Гравитация в 3D, Трейлер
Gravity in 3D, Trailer
--Год выпуска: 2013
Страна: США, Великобритания
Жанр: фантастика, триллер, ...
Продолжительность: 00:01:32--Описание: Группа астронавтов коротает дни на космической станции. Однажды, когда капитан и его коллега выполняют задание в открытом космосе, обломки взорвавшегося спутника убивают весь экипаж.--Формат 3d: Anamorph OverUnder (левый ракурс верхний)
Качество: DCPrip
Контейнер: mkv
Видео: AVC / 1920х1080 / 24 fps / 16.4 Mbps
Аудио: Русский / AC3 / 6 ch / 448 Kbps / 48 KHz--

MediaInfo:

Код:
General
Unique ID                      : 175867593999216493425437130719674123078 (0x844EDDD66B9312B9BF0976FAE1BA4346)
Complete name                  : L:\_3D\3D-Trailers\_2013\3D\Trailer_Gravity(3D)HalfOU-abq.mkv
Format                         : Matroska
Format version                 : Version 2
File size                      : 188 MiB
Duration                       : 1mn 32s
Overall bit rate               : 17.2 Mbps
Encoded date                   : UTC 2013-06-05 17:00:43
Writing application            : mkvmerge v4.0.0 ('The Stars were mine') сборка от Jun  6 2010 16:18:42
Writing library                : libebml v1.0.0 + libmatroska v1.0.0
Video
ID                             : 1
Format                         : AVC
Format/Info                    : Advanced Video Codec
Format profile                 : High@L4.1
Format settings, CABAC         : Yes
Format settings, ReFrames      : 4 frames
Codec ID                       : V_MPEG4/ISO/AVC
Duration                       : 1mn 32s
Bit rate                       : 16.4 Mbps
Width                          : 1 920 pixels
Height                         : 1 080 pixels
Display aspect ratio           : 16:9
Frame rate mode                : Constant
Frame rate                     : 24.000 fps
Color space                    : YUV
Chroma subsampling             : 4:2:0
Bit depth                      : 8 bits
Scan type                      : Progressive
Bits/(Pixel*Frame)             : 0.329
Stream size                    : 180 MiB (95%)
Writing library                : x264 core 116 r2074 2641b9e
Encoding settings              : cabac=1 / ref=4 / deblock=1:-3:-3 / analyse=0x3:0x113 / me=umh / subme=9 / psy=1 / psy_rd=1.00:0.15 / mixed_ref=1 / me_range=32 / chroma_me=1 / trellis=2 / 8x8dct=1 / cqm=0 / deadzone=21,11 / fast_pskip=1 / chroma_qp_offset=-3 / threads=6 / sliced_threads=0 / nr=0 / decimate=1 / interlaced=0 / bluray_compat=0 / constrained_intra=0 / bframes=6 / b_pyramid=2 / b_adapt=2 / b_bias=0 / direct=3 / weightb=1 / open_gop=0 / weightp=2 / keyint=240 / keyint_min=24 / scenecut=40 / intra_refresh=0 / rc_lookahead=60 / rc=crf / mbtree=1 / crf=18.0 / qcomp=0.60 / qpmin=0 / qpmax=69 / qpstep=4 / vbv_maxrate=40000 / vbv_bufsize=40000 / crf_max=0.0 / nal_hrd=none / frame-packing=4 / ip_ratio=1.40 / aq=1:0.80
Language                       : English
Default                        : No
Forced                         : No
Audio
ID                             : 2
Format                         : AC-3
Format/Info                    : Audio Coding 3
Mode extension                 : CM (complete main)
Format settings, Endianness    : Big
Codec ID                       : A_AC3
Duration                       : 1mn 32s
Bit rate mode                  : Constant
Bit rate                       : 448 Kbps
Channel(s)                     : 6 channels
Channel positions              : Front: L C R, Side: L R, LFE
Sampling rate                  : 48.0 KHz
Bit depth                      : 16 bits
Compression mode               : Lossy
Stream size                    : 4.91 MiB (3%)
Language                       : Russian
Default                        : Yes
Forced                         : No

Скриншоты

Благодарности релизеру (39)

Торрент:

Статус:

Размер:

Зарегистрирован   [ 2013-06-13 13:42 ]

проверено

188 MB

 
 Мнение о фильме (22)

1, 2  След.






научная фантастика в чистом виде . фильм о безграничности космоса и об одиночестве , 3д в трейлере на уровне .
 
евгения мурашко Профиль 14-Июн-2013 12:35

3D на уровне. Судить о фильме по трейлеру сложно.
 

3Д хорошее. Надеюсь фильм тоже будет хороший
 

3D приличное.Фильм я думаю стоит посмотреть.
 

Режиссёр Джеймс Кэмерон назвал фильм «Гравитация» лучшей картиной о космосе в истории кинематографа.
Британская компания Framestore ruen, занимавшаяся разработкой спецэффектов для картины, заявила на своём сайте, что фильм по амбициозности будет сравним с фильмом «Аватар» (2009).
 

Друзья смотрели в Imax Сказали, что круто, посмотрю, напишу
 

Это второй фильм в моей жизни, который меня впечатлил в 3D формате! Первый был Аватар!
 

Когда Фильм появится? Кто нибудь знает?
 

Режиссёр Джеймс Кэмерон назвал фильм «Гравитация» лучшей картиной о космосе в истории кинематографа
.... и снова громкие взрывы...... в вакууме..... там звук не распространяется. - это РАЗ (...раньше это даже школьники знали...) !!!!
.... смотреть на солнышко без защитного светофильтра - такого не бывает на МКС и не было даже у Леонова - первого космонавта вышедшего в Outer Space..... - это ДВА !!!!
Посмотрим фильм - счет продолжится.
"напевы и диферамбы" Кэмерона - это лучшая рекомендация и реклама - Вот что факт.
Видимо Кубрика люди не знают......
 

Жду с нетерпением.
 

StasyanTT, цитирую кинопоиск:
Хотя сам фильм является точным в научном плане, и в нем соблюден тот факт, что в космосе звуки не слышны, звуковые эффекты все же были добавлены в трейлерах, чтобы они выглядели более захватывающими.
А насчет ультрафиолетовых фильтров - хоть это и описано в разделе ошибок, но думаю сделано специально - кому хочется весь фильм таращиться на зеркало?
Смотрел и в обычном 3д и в IMAX - фильм шикарный в плане картинки, сюжет да простоват и местами нереалистичен, но как и аватару это простительно, ради таких красивых панорам из космоса и не такое стерпишь.
 

luxanddux, Да я не против фильма как такового - мне он тоже любопытен. )
 

фильм - просто бомба смотрел 2 раза.
 

народ, а когда полный фильм ждать в 3D?
 

народ, а когда полный фильм ждать в 3D?
когда выйдет блурей
 

По трейлеру сложновато судить и о качестве 3D и о самом фильме, но заинтересовался фильмом, когда узнал, что этот фильм один из лучших, снятых в 2013 году. В трейлере 3D хорошее. Ждем полный фильм.
 

Фильм очень понравился
Ma-ko писал(а):
народ, а когда полный фильм ждать в 3D?
когда выйдет блурей
релиз на Blu-Ray
21 февраля 2014, «CP Дистрибуция»
релиз на DVD
21 февраля 2014, «CP Дистрибуция»
 

Имеется видеофайл гравитации 1080 3d горизонтальная стереопара, к ней бы дорожку приспособить. Может у кого завалялся дубляж?
 

 

Вот тут, например, чистый звук:
http://www.rutor.org/torrent/327333/gravitacija_gra...20p-chistyj-zvuk
Вот тут, например, нерусский 3D 1080 - правда размер какой-то маловатый - 5.3 Гига (жать серую кнопку):
http://www.torrentdownloads.me/torrent/1657224799/G...+1080p+3D-TVtrek
Щас качаю. Если кто найдет время сваять и выложить русский 3d 1080 - было бы гууд.
 

Страница 1 из 2

1, 2  След.