Торренты   
 
 

 

Тихоокеанский рубеж в 3D, Трейлер / Pacific Rim in 3D, Trailer [2013 г., DCPrip, Anamorph OverUnder]

Рейтинг 3D:
40 голосов
7.9
Рейтинг фильма:
38 голосов
7.3
 
Вы должны быть авторизированы,
чтобы ставить оценки


Тихоокеанский рубеж в 3D, Трейлер
Pacific Rim in 3D, Trailer
--Год выпуска: 2013
Страна: США
Жанр: фантастика, боевик, приключения, ...
Продолжительность: 00:02:31--Описание: Когда из морских глубин поднялись легионы чудовищ, известных как Кайдзу, началась война, которой суждено было забрать миллионы жизней и свести «человеческие ресурсы» почти к нулю всего за несколько лет. Чтобы сражаться с пришельцами, было создано специальное оружие: огромные роботы, названные Джегерами, они управлялись одновременно двумя пилотами, чьи сознания соединены с помощью нейронной связи. Но даже Джегеры оказываются почти бессильны перед лицом безжалостных Кайдзу. На грани поражения у защитников человечества нет выбора, кроме как обратиться к двум весьма сомнительным героям — никому не нужному бывшему пилоту и неопытному стажеру — которые объединились, чтобы повести в бой некогда легендарного, но сейчас устаревшего Джегера. Вместе они оказываются единственной надеждой человечества, последним препятствием перед надвигающимся апокалипсисом.--Формат 3d: Anamorph OverUnder (левый ракурс верхний)
Качество: DCPrip
Контейнер: mkv
Видео: AVC / 1920х1080 / 24 fps / 17.2 Mbps
Аудио: Русский / AC3 / 6 ch / 448 Kbps / 48 KHz--

MediaInfo:

Код:
General
Unique ID                      : 190789848598780139681857671837913871352 (0x8F88C9CAC3065D6097B41C48B69A73F8)
Complete name                  : L:\_3D\3D-Trailers\_2013\3D\Trailer_PacificRim(3D)HalfOU-abq.mkv
Format                         : Matroska
Format version                 : Version 2
File size                      : 323 MiB
Duration                       : 2mn 30s
Overall bit rate               : 18.0 Mbps
Encoded date                   : UTC 2013-06-12 09:21:18
Writing application            : mkvmerge v4.0.0 ('The Stars were mine') сборка от Jun  6 2010 16:18:42
Writing library                : libebml v1.0.0 + libmatroska v1.0.0
Video
ID                             : 1
Format                         : AVC
Format/Info                    : Advanced Video Codec
Format profile                 : High@L4.1
Format settings, CABAC         : Yes
Format settings, ReFrames      : 4 frames
Codec ID                       : V_MPEG4/ISO/AVC
Duration                       : 2mn 30s
Bit rate                       : 17.2 Mbps
Width                          : 1 920 pixels
Height                         : 1 080 pixels
Display aspect ratio           : 16:9
Frame rate mode                : Constant
Frame rate                     : 24.000 fps
Color space                    : YUV
Chroma subsampling             : 4:2:0
Bit depth                      : 8 bits
Scan type                      : Progressive
Bits/(Pixel*Frame)             : 0.345
Stream size                    : 308 MiB (96%)
Writing library                : x264 core 116 r2074 2641b9e
Encoding settings              : cabac=1 / ref=4 / deblock=1:-3:-3 / analyse=0x3:0x113 / me=umh / subme=9 / psy=1 / psy_rd=1.00:0.15 / mixed_ref=1 / me_range=32 / chroma_me=1 / trellis=2 / 8x8dct=1 / cqm=0 / deadzone=21,11 / fast_pskip=1 / chroma_qp_offset=-3 / threads=6 / sliced_threads=0 / nr=0 / decimate=1 / interlaced=0 / bluray_compat=0 / constrained_intra=0 / bframes=6 / b_pyramid=2 / b_adapt=2 / b_bias=0 / direct=3 / weightb=1 / open_gop=0 / weightp=2 / keyint=240 / keyint_min=24 / scenecut=40 / intra_refresh=0 / rc_lookahead=60 / rc=crf / mbtree=1 / crf=18.0 / qcomp=0.60 / qpmin=0 / qpmax=69 / qpstep=4 / vbv_maxrate=40000 / vbv_bufsize=40000 / crf_max=0.0 / nal_hrd=none / frame-packing=4 / ip_ratio=1.40 / aq=1:0.80
Language                       : English
Default                        : No
Forced                         : No
Audio
ID                             : 2
Format                         : AC-3
Format/Info                    : Audio Coding 3
Mode extension                 : CM (complete main)
Format settings, Endianness    : Big
Codec ID                       : A_AC3
Duration                       : 2mn 30s
Bit rate mode                  : Constant
Bit rate                       : 448 Kbps
Channel(s)                     : 6 channels
Channel positions              : Front: L C R, Side: L R, LFE
Sampling rate                  : 48.0 KHz
Bit depth                      : 16 bits
Compression mode               : Lossy
Stream size                    : 8.05 MiB (2%)
Language                       : Russian
Default                        : Yes
Forced                         : No

Скриншоты

Благодарности релизеру (27)

Торрент:

Статус:

Размер:

Зарегистрирован   [ 2013-06-13 14:04 ]

проверено

323 MB

 
 Мнение о фильме (10)





Судя по картинке, Трансформеры будут отдыхать? :) Но вот сюжет вызывает некоторые опасения...
 

Народ, подскажите откуда источних данных трейлеров? Где их можно найти (имеется ввиду именно 3d-шные ролики со звуком АС3)
 

 

3D хорошее. Сюжет уж очень напоминает Трансформеров, только пришедших не их космоса, а из моря (хотя по трейлеру судить сложно).
 

копия евангилиона
 

3D норм. Но вот какой получится фильм по трейлеру сказать сложно..
 

Обожаю фантастику!!!
 

Ждём!!!
 

Но вот какой получится фильм по трейлеру сказать сложно..
 

А когда этот фильм появится в 3D?