Торренты   
 
 

 

Росомаха: Бессмертный в 3D, Трейлер / The Wolverine in 3D, Trailer [2013 г., DCPrip, Anamorph OverUnder]

Рейтинг 3D:
19 голосов
8.0
Рейтинг фильма:
18 голосов
8.3
 
Вы должны быть авторизированы,
чтобы ставить оценки


Росомаха: Бессмертный в 3D, Трейлер
The Wolverine in 3D, Trailer
--Год выпуска: 2013
Страна: США
Жанр: фантастика, фэнтези, боевик, приключения, ...
Продолжительность: 00:02:03--Описание: Логан отправляется в Японию, где влюбляется в дочь главы клана Якудза. Ради любви Логану придется противостоять ее отцу Сингену, брату Самураю, наемнице Гадюке и другим опасным врагам.--Формат 3d: Anamorph OverUnder (левый ракурс верхний)
Качество: DCPrip
Контейнер: mkv
Видео: AVC / 1920х1080 / 24 fps / 8155 Kbps
Аудио: Русский / AC3 / 6 ch / 448 Kbps / 48 KHz--

MediaInfo:

Код:
General
Unique ID                      : 246610838004018742944766077533748937208 (0xB987850E7B8BB359BBC6071C3C0341F8)
Complete name                  : L:\_3D\3D-Trailers\_2013\3D\Trailer_TheWolverine(3D)HalfOU-abq.mkv
Format                         : Matroska
Format version                 : Version 2
File size                      : 129 MiB
Duration                       : 2mn 2s
Overall bit rate               : 8 777 Kbps
Encoded date                   : UTC 2013-06-12 09:36:47
Writing application            : mkvmerge v4.0.0 ('The Stars were mine') сборка от Jun  6 2010 16:18:42
Writing library                : libebml v1.0.0 + libmatroska v1.0.0
Video
ID                             : 1
Format                         : AVC
Format/Info                    : Advanced Video Codec
Format profile                 : High@L4.1
Format settings, CABAC         : Yes
Format settings, ReFrames      : 4 frames
Codec ID                       : V_MPEG4/ISO/AVC
Duration                       : 2mn 2s
Bit rate                       : 8 155 Kbps
Width                          : 1 920 pixels
Height                         : 1 080 pixels
Display aspect ratio           : 16:9
Frame rate mode                : Constant
Frame rate                     : 24.000 fps
Color space                    : YUV
Chroma subsampling             : 4:2:0
Bit depth                      : 8 bits
Scan type                      : Progressive
Bits/(Pixel*Frame)             : 0.164
Stream size                    : 119 MiB (93%)
Writing library                : x264 core 116 r2074 2641b9e
Encoding settings              : cabac=1 / ref=4 / deblock=1:-3:-3 / analyse=0x3:0x113 / me=umh / subme=9 / psy=1 / psy_rd=1.00:0.15 / mixed_ref=1 / me_range=32 / chroma_me=1 / trellis=2 / 8x8dct=1 / cqm=0 / deadzone=21,11 / fast_pskip=1 / chroma_qp_offset=-3 / threads=6 / sliced_threads=0 / nr=0 / decimate=1 / interlaced=0 / bluray_compat=0 / constrained_intra=0 / bframes=6 / b_pyramid=2 / b_adapt=2 / b_bias=0 / direct=3 / weightb=1 / open_gop=0 / weightp=2 / keyint=240 / keyint_min=24 / scenecut=40 / intra_refresh=0 / rc_lookahead=60 / rc=crf / mbtree=1 / crf=18.0 / qcomp=0.60 / qpmin=0 / qpmax=69 / qpstep=4 / vbv_maxrate=40000 / vbv_bufsize=40000 / crf_max=0.0 / nal_hrd=none / frame-packing=4 / ip_ratio=1.40 / aq=1:0.80
Language                       : English
Default                        : No
Forced                         : No
Audio
ID                             : 2
Format                         : AC-3
Format/Info                    : Audio Coding 3
Mode extension                 : CM (complete main)
Format settings, Endianness    : Big
Codec ID                       : A_AC3
Duration                       : 2mn 2s
Bit rate mode                  : Constant
Bit rate                       : 448 Kbps
Channel(s)                     : 6 channels
Channel positions              : Front: L C R, Side: L R, LFE
Sampling rate                  : 48.0 KHz
Bit depth                      : 16 bits
Compression mode               : Lossy
Stream size                    : 6.56 MiB (5%)
Language                       : Russian
Default                        : Yes
Forced                         : No

Скриншоты

Благодарности релизеру (10)

Торрент:

Статус:

Размер:

Зарегистрирован   [ 2013-06-13 14:16 ]

проверено

129 MB

 
 Мнение о фильме (9)





ты сам то пробовал смотреть это г на встроеном плеере
 

reonic а в чём проблема ? неподошло к вашему гавёному телевизору ?
 

Не знаю что такое DCPrip, но качество отстой, такое впечатление что на Ютубе МР4.720р. глубина больше (хотя 2Д)...про вылеты скромно промолчу...За релиз как всегда СПАСИБО!!!
 

Да не гоните все тут нормально
 

сегодня просто праздник трейлеров какой-то, спасибо вам!
 

Не подскажите источник, где можно найти трейлеры 3D (и в 2D) именно со звуковой дорожкой 5.1 ? На кинопоиске звуковая дорога 2-х канальная.
 

rommy, в открытом доступе в DCP - здесь:
http://www.wdsspr.ru/
В закрытом доступе тут:
https://www.dcp24.ru/movies
 

А мне понравилось!!!
 

трейлер впечатляет