Торренты   
 
 

 

Кораллы 3Д: Магия Индо-Тихоокеании / Corals 3D: Magic of the Indo-Pacific [2012, BDRip, half1080p, Anamorph OverUnder]

Рейтинг 3D:
23 голосов
7.7
Рейтинг фильма:
21 голосов
7.8
 
Вы должны быть авторизированы,
чтобы ставить оценки


Кораллы 3Д: Магия Индо-Тихоокеании
Corals 3D: Magic of the Indo-Pacific

Год выпуска: 2012
Страна: Германия (NewKSM, Video3D.com)
Жанр: Документальный, Видовой
Продолжительность: 00:52:34
Перевод: Отсутствует (необязателен)
Режиссер: Stephan Stahl
Описание: Путешествие по подводному миру Индонезии.- -Качество: BDRip (by Ash61)
Контейнер: MKV
Формат 3D: Anamorph OverUnder / Вертикальная анаморфная стереопара
Порядок ракурсов: левый ракурс первый-Видео: AVC / 23,976 fps / 1920х1080p / 20.1 Mbps
Аудио:
#1 - Английский / AC3 / 48 KHz / 5.1 ch / 640 Kbps
#2 - Инструментал / AC3 / 48 KHz / 2.0 ch / 448 Kbps
Субтитры: Отсутствуют

MediaInfo

General
Unique ID : 195828232069874271306477912034991200760 (0x93532546B20F0EF08EE9A72FAA70D9F8)
Complete name : G:\Downloads\Corals3D.MagicOfTheIndoPacific(3D-halfOU)2012(byAsh61)Eng.mkv
Format : Matroska
Format version : Version 2
File size : 7.93 GiB
Duration : 52mn 33s
Overall bit rate : 21.6 Mbps
Movie name : Кораллы 3Д. Магия Индо-Тихоокеании (2012) Corals 3D. Magic of the Indo-Pacific (3D)
Encoded date : UTC 2013-05-26 11:42:45
Writing application : mkvmerge v5.8.0 ('No Sleep / Pillow') built on Sep 2 2012 15:37:04
Writing library : libebml v1.2.3 + libmatroska v1.3.0
Video
ID : 1
Format : AVC
Format/Info : Advanced Video Codec
Format profile : High@L4.1
Format settings, CABAC : Yes
Format settings, ReFrames : 4 frames
Codec ID : V_MPEG4/ISO/AVC
Duration : 52mn 33s
Bit rate : 20.1 Mbps
Width : 1 920 pixels
Height : 1 080 pixels
Display aspect ratio : 16:9
Frame rate mode : Constant
Frame rate : 23.976 fps
Color space : YUV
Chroma subsampling : 4:2:0
Bit depth : 8 bits
Scan type : Progressive
Bits/(Pixel*Frame) : 0.404
Stream size : 7.38 GiB (93%)
Title : BDRip by Ash61
Writing library : x264 core 129 r2245 bc13772
Encoding settings : cabac=1 / ref=4 / deblock=1:-1:-1 / analyse=0x3:0x113 / me=umh / subme=9 / psy=1 / psy_rd=1.00:0.15 / mixed_ref=1 / me_range=32 / chroma_me=1 / trellis=2 / 8x8dct=1 / cqm=0 / deadzone=21,11 / fast_pskip=1 / chroma_qp_offset=-3 / threads=12 / lookahead_threads=2 / sliced_threads=0 / nr=0 / decimate=1 / interlaced=0 / bluray_compat=0 / constrained_intra=0 / bframes=7 / b_pyramid=2 / b_adapt=2 / b_bias=0 / direct=3 / weightb=1 / open_gop=0 / weightp=2 / keyint=250 / keyint_min=23 / scenecut=40 / intra_refresh=0 / rc_lookahead=60 / rc=crf / mbtree=1 / crf=18.0 / qcomp=0.70 / qpmin=10 / qpmax=69 / qpstep=4 / vbv_maxrate=40000 / vbv_bufsize=30000 / crf_max=0.0 / nal_hrd=none / frame-packing=4 / ip_ratio=1.40 / aq=1:0.70
Language : German
Default : Yes
Forced : No
Audio #1
ID : 2
Format : AC-3
Format/Info : Audio Coding 3
Mode extension : CM (complete main)
Format settings, Endianness : Big
Codec ID : A_AC3
Duration : 52mn 33s
Bit rate mode : Constant
Bit rate : 640 Kbps
Channel(s) : 6 channels
Channel positions : Front: L C R, Side: L R, LFE
Sampling rate : 48.0 KHz
Bit depth : 16 bits
Compression mode : Lossy
Stream size : 241 MiB (3%)
Language : English
Default : Yes
Forced : No
Audio #2
ID : 3
Format : AC-3
Format/Info : Audio Coding 3
Mode extension : CM (complete main)
Format settings, Endianness : Big
Codec ID : A_AC3
Duration : 52mn 33s
Bit rate mode : Constant
Bit rate : 448 Kbps
Channel(s) : 2 channels
Channel positions : Front: L R
Sampling rate : 48.0 KHz
Bit depth : 16 bits
Compression mode : Lossy
Stream size : 168 MiB (2%)
Title : Instrumental
Default : No
Forced : No
Menu
00:00:00.000 : :1
00:08:15.161 : :2
00:17:21.332 : :3
00:25:57.431 : :4
00:35:24.122 : :5
00:43:52.213 : :6

Для оценки 3д - Анимированные скрины


















Благодарности релизеру (51)

Торрент:

Статус:

Размер:

Зарегистрирован   [ 2013-06-15 14:49 ]

проверено

7.93 GB

 
 Мнение о фильме (4)





Всем любителям хорошего 3D настоятельно рекомендую посмотреть этот яркий, красочный, необыкновенно красивый фильм! Кораллов и рыбок огромное количество, периодически и те, и другие вылезают из экрана, а уж планктон и мелкие частички вообще летали по всей комнате ( смотрел с расстояния 4,5 метра, телевизор LG 47 дюймов ). Кто уже соскучился по настоящему 3D найдут тут и хорошую глубину, и объем, и вылеты - и все это под релаксирующую музыку ( которая, впрочем, местами могла бы быть и по-разнообразней ) !
P.S. И наводит это на такие мысли - фильм большей частью снят под водой! Без всяких декораций! Без компьютерной графики! С непрофессиональными актерами ( рыбками :) )! И такое хорошее качество 3D! И глазам комфортно! А сколько мы видели фильмов с многомиллионными бюджетами в последнее время, где 3D - полный отстой, или, в лучшем случае, весьма посредственное. Видно, все же качество стереофильма в первую очередь зависит от толковости и прямоты рук авторов!
P.P.S. Советую сразу включить 2-ю аудиодорожку, без диктора.
 

Здесь можно сказать только одно, это - нечто неординарное! :)
Соглашусь также, что смотреть надо под вторую дорожку с музыкой.
 

Фильм и правда ЧУДО, завораживает с первой секунды просмотра и до конца...,от экрана глаз просто не оторвать. Качество отменное. Спасибо автору.
 

Очень красивый фильм.Большое спасибо.