Торренты   
 
 

 

Измеряя мир / Die Vermessung der Welt / Measuring the World [2012, BDRip, half1080p, Anamorph OverUnder]

Рейтинг 3D:
79 голосов
7.5
Рейтинг фильма:
81 голосов
7.2
 
Вы должны быть авторизированы,
чтобы ставить оценки


Измеряя мир
Die Vermessung der Welt
Measuring the World

Год выпуска: 2012
Страна: Германия (Warner Bros. Pictures, Boje Buck Produktion, Lotus-Film)
Жанр: История, Приключения, Драма
Продолжительность: 02:02:56
Перевод: Профессиональный (дублированный)
Режиссер: Детлев Бук / Detlev Buck
В ролях: Флориан Давид Фиц, Альбрехт Шух, Балданпурев Самбуу, Аги Ариунсэйчан Даваачу, Жереми Капон, Вики Крипс, Карл Марковиц, Леннарт Хансель, Ядеа, Паскаль Фиедлер
Описание: Аристократу Александру фон Гумбольдту было с рождения предначертано наслаждаться жизнью в родовом замке, выезжать на светские рауты и охоту, а по выходным посещать церковь. Но он с детства мечтал о путешествиях.
Сыну бедняков Карлу Гауссу было с рождения предначертано повторить нелёгкую судьбу родителей. Но школьный учитель распознал его гений и выхлопотал стипендию для учебы в гимназии.
Александр Фон Гумбольдт путешествовал всю свою жизнь, постигая мир через собственный опыт и наблюдения — и мир приобрел учёного-энциклопедиста и основателя множества областей науки. Карл Гаусс всю жизнь прожил в Брауншвайге и Гёттингене, что не помешало ему изобрести теорию чисел и стать одним из величайших математиков всех времен. В 1828 году два исследователя и покорителя мира встретятся на Первом Всемирном конгрессе в Берлине…- . -Качество: BDRip (by Ash61)
Контейнер: MKV
Формат 3D: Anamorph OverUnder / Вертикальная анаморфная стереопара
Порядок ракурсов: левый ракурс первый-Видео: AVC / 23,976 fps / 1920х1080p / 9 741 Kbps
Аудио:
#1 - Русский / AC3 / 48 KHz / 5.1 ch / 448 Kbps (Дубляж - Лицензия)
#2 - Немецкий / AC3 / 48 KHz / 5.1 ch / 640 Kbps (Original)
Субтитры: Внешние (SRT UTF-8)
#1 - Русские полные
#2 - English Full
#3 - German SDH

MediaInfo

General
Unique ID : 199922400635930955584215930724676837480 (0x9667A75F08AD2D6AA14C02A35174A068)
Complete name : G:\Downloads\MeasuringTheWorld(3D-halfOU)2012(Ash61)\MeasuringTheWorld(3D-halfOU)2012(Ash61).mkv
Format : Matroska
Format version : Version 2
File size : 9.49 GiB
Duration : 2h 2mn
Overall bit rate : 11.0 Mbps
Movie name : Измеряя мир / Die Vermessung der Welt / Measuring the World (3D) 2012
Encoded date : UTC 2013-06-16 07:01:02
Writing application : mkvmerge v5.8.0 ('No Sleep / Pillow') built on Sep 2 2012 15:37:04
Writing library : libebml v1.2.3 + libmatroska v1.3.0
Video
ID : 1
Format : AVC
Format/Info : Advanced Video Codec
Format profile : High@L4.1
Format settings, CABAC : Yes
Format settings, ReFrames : 4 frames
Codec ID : V_MPEG4/ISO/AVC
Duration : 2h 2mn
Bit rate : 9 741 Kbps
Width : 1 920 pixels
Height : 1 080 pixels
Display aspect ratio : 16:9
Frame rate mode : Constant
Frame rate : 23.976 fps
Color space : YUV
Chroma subsampling : 4:2:0
Bit depth : 8 bits
Scan type : Progressive
Bits/(Pixel*Frame) : 0.196
Stream size : 8.36 GiB (88%)
Title : BDRip by Ash61
Writing library : x264 core 129 r2245 bc13772
Encoding settings : cabac=1 / ref=4 / deblock=1:-3:-3 / analyse=0x3:0x113 / me=umh / subme=9 / psy=1 / psy_rd=1.00:0.15 / mixed_ref=1 / me_range=32 / chroma_me=1 / trellis=2 / 8x8dct=1 / cqm=0 / deadzone=21,11 / fast_pskip=1 / chroma_qp_offset=-3 / threads=12 / lookahead_threads=2 / sliced_threads=0 / nr=0 / decimate=1 / interlaced=0 / bluray_compat=0 / constrained_intra=0 / bframes=8 / b_pyramid=2 / b_adapt=2 / b_bias=0 / direct=3 / weightb=1 / open_gop=0 / weightp=2 / keyint=250 / keyint_min=23 / scenecut=40 / intra_refresh=0 / rc_lookahead=60 / rc=crf / mbtree=1 / crf=17.5 / qcomp=0.70 / qpmin=0 / qpmax=69 / qpstep=4 / vbv_maxrate=40000 / vbv_bufsize=30000 / crf_max=0.0 / nal_hrd=none / frame-packing=4 / ip_ratio=1.40 / aq=1:0.70
Language : German
Default : Yes
Forced : No
Audio #1
ID : 2
Format : AC-3
Format/Info : Audio Coding 3
Mode extension : CM (complete main)
Format settings, Endianness : Big
Codec ID : A_AC3
Duration : 2h 2mn
Bit rate mode : Constant
Bit rate : 448 Kbps
Channel(s) : 6 channels
Channel positions : Front: L C R, Side: L R, LFE
Sampling rate : 48.0 KHz
Bit depth : 16 bits
Compression mode : Lossy
Stream size : 394 MiB (4%)
Title : Дубляж - Лицензия
Language : Russian
Default : Yes
Forced : No
Audio #2
ID : 3
Format : AC-3
Format/Info : Audio Coding 3
Mode extension : CM (complete main)
Format settings, Endianness : Big
Codec ID : A_AC3
Duration : 2h 2mn
Bit rate mode : Constant
Bit rate : 640 Kbps
Channel(s) : 6 channels
Channel positions : Front: L C R, Side: L R, LFE
Sampling rate : 48.0 KHz
Bit depth : 16 bits
Compression mode : Lossy
Stream size : 563 MiB (6%)
Title : Original
Language : German
Default : No
Forced : No
Menu
00:00:00.000 : :1
00:12:05.475 : :2
00:20:29.812 : :3
00:31:42.275 : :4
00:42:16.325 : :5
00:52:51.794 : :6
01:01:46.620 : :7
01:12:15.540 : :8
01:24:07.042 : :9
01:35:39.025 : :10
01:44:35.519 : :11
01:54:44.544 : :12

Для оценки 3д - Анимированные скрины















Остальные раздачи этого фильма (3)
Благодарности релизеру (68)

Торрент:

Статус:

Размер:

Зарегистрирован   [ 2013-06-16 15:56 ]

проверено

9.49 GB

 
 Мнение о фильме (36)

1, 2  След.






Ух ты! Типа биографическоприключенческий? А скрины красивые, особенно 5-ый и 6-ой!
 

Vyacheslav27, только детям этот фильм "противопоказан"... :)
 

Ух ты!!!!Судя по сринам достойно!!!!!:)
 

Vyacheslav27, только детям этот фильм "противопоказан"... :)
ash61 , почему? конкретнее
 

Vyacheslav27, только детям этот фильм "противопоказан"... :)
ash61 , почему? конкретнее
скрины посмотрите,слишком много "секаса" )
 

А как сам фильм? Интересный? Как качество 3D? Вылеты есть?
 

кто нибудь смотрел хоть ?
 

Сейчас времени нет, посмотрел минут 30, фильм на любителя, но мне нравиться, потом досмотрю. Секаса пока не видел, но думаю немцы не подкачают :)
 

Очень хороший фильм. И 3Д на уровне.
 

Фильм отличный!Спасибо всем, кто выкладывает и раздает!
 

Неплохо,мне понравилось.3D на уровне.
 

Фильм понравился. Снят в своеобразной суперреалистичной манере, картинка стильно обработана ( хотя это сделало ее темноватой ). Немцы интересно поснимали в Южной Америке, много запоминающихся персонажей. 3D очень хорошее и комфортное, вылетов не заметил.
 

фильм хороший ,качество приличное,3д приличное. раздающему поклон за труды
 

3Д приличное, а фильм на любителя-мне не понравился...
 

Как здесь уже писали 3D на хорошем уровне, но не на всем протяжении фильма. Фильм на любителя, и не совсем точно раскрывает биографическую составляющую.
 

Скачали трое.Хоть оценки поставте)))
 

Фильм захватывающе интересен. Некоторое наукообразие не мешает. Эротические сцены достаточно целомудренны. 3D на высоте. Благодарю за раздачу.
 

Просто не думаю, что моё мнение сильно интересует сообщество.Но, что касается самого сайта, то и конвертация в 3Д(учитывая размер файлов для инета), здесь есть момент и самого источника для конвертации(т.н. лицензия, либо таковой не является, либо продавцы понимают под ней нечто совсем иное),- весьма достойна.Касаемо фильмов, то отношение к ним может зависеть от настроения, времени суток и т.д., плохих у Вас нет, ну а заинтересованность тем,или иным жанром зависит от смотрящего оные. Ну а вчерашняя научная фантастика превращается, либо в прошлое, либо в бред недоучки, фантазия (или фэнтези), если убрать из неё всю чепуху, внесённую для зрелищности, м. превратиться в историю, последняя же али в опиум для народа, или во всеобщий обман.
[URL=http://youtubedownloadersf.en.softonic.com/ ]youtube downloader[/URL]
 

Фильм понравился. 3Д тоже хорошее. Есть и вылеты, но без фанатизма. Спасибо большое.
 

Фигня. Для любителей автобиографий (да и то, подлинник или вымысел мне лично неизвестно). По мне - потраченное время. 3D- без вылетов и спецэфектов. Короче нудный фильм длинною 2 часа. Еле досмотрел.
 

Страница 1 из 2

1, 2  След.