Торренты   
 
 


Парк птиц / Bird Park [2011, BDRip, half1080p, Anamorph OverUnder] Eng

Рейтинг 3D:
2 голосов
5.0
Рейтинг фильма:
2 голосов
6.0
 
Вы должны быть авторизированы,
чтобы ставить оценки


-Парк птиц
Bird Park
- Год выпуска: 2011
Страна: Германия, Сингапур (New KSM)
Жанр: Документальный, Видовой
Продолжительность: 00:28:34 + 00:29:14 + 00:29:12
Перевод: Отсутствует
Режиссер: Willie Lee
Описание: Экскурсия по парку птиц Джуронг (Сингапур) (в трёх частях-файлах).- -Качество: BDRip (by Ash61)
Контейнер: MKV
Формат 3D: Anamorph OverUnder / Вертикальная анаморфная стереопара
Порядок ракурсов: левый ракурс первый
Видео кодек: x264
Аудио кодек: AC3-Видео: AVC / 23,976 fps / 1920х1080p / 18.2; 18.1; 20.9 Mbps
Аудио: Английский / AC3 / 48 KHz / 2.0 ch / 448 Kbps
Субтитры: Отсутствуют

MediaInfo первого файла (второй и третий отличаются только битрейтом видео)

General
Unique ID : 179499973883641999335379113022730353886 (0x870A6FFE28F37580BA8176A080CD3CDE)
Complete name : G:\Downloads\BirdPark(3D-halfOU)2011(Ash61)Eng\BirdPark-1(3D-halfOU)2011(Ash61)Eng.mkv
Format : Matroska
Format version : Version 2
File size : 3.80 GiB
Duration : 28mn 33s
Overall bit rate : 19.1 Mbps
Movie name : Парк птиц / Bird Park (3D) 2012
Encoded date : UTC 2013-06-15 17:09:00
Writing application : mkvmerge v5.8.0 ('No Sleep / Pillow') built on Sep 2 2012 15:37:04
Writing library : libebml v1.2.3 + libmatroska v1.3.0
Video
ID : 1
Format : AVC
Format/Info : Advanced Video Codec
Format profile : High@L4.1
Format settings, CABAC : Yes
Format settings, ReFrames : 4 frames
Codec ID : V_MPEG4/ISO/AVC
Duration : 28mn 33s
Bit rate : 18.2 Mbps
Width : 1 920 pixels
Height : 1 080 pixels
Display aspect ratio : 16:9
Frame rate mode : Constant
Frame rate : 23.976 fps
Color space : YUV
Chroma subsampling : 4:2:0
Bit depth : 8 bits
Scan type : Progressive
Bits/(Pixel*Frame) : 0.367
Stream size : 3.64 GiB (96%)
Title : BDRip by Ash61
Writing library : x264 core 129 r2245 bc13772
Encoding settings : cabac=1 / ref=4 / deblock=1:-1:-1 / analyse=0x3:0x113 / me=umh / subme=9 / psy=1 / psy_rd=1.00:0.15 / mixed_ref=1 / me_range=32 / chroma_me=1 / trellis=2 / 8x8dct=1 / cqm=0 / deadzone=21,11 / fast_pskip=1 / chroma_qp_offset=-3 / threads=12 / lookahead_threads=2 / sliced_threads=0 / nr=0 / decimate=1 / interlaced=0 / bluray_compat=0 / constrained_intra=0 / bframes=8 / b_pyramid=2 / b_adapt=2 / b_bias=0 / direct=3 / weightb=1 / open_gop=0 / weightp=2 / keyint=250 / keyint_min=23 / scenecut=40 / intra_refresh=0 / rc_lookahead=60 / rc=crf / mbtree=1 / crf=18.0 / qcomp=0.70 / qpmin=10 / qpmax=69 / qpstep=4 / vbv_maxrate=40000 / vbv_bufsize=30000 / crf_max=0.0 / nal_hrd=none / frame-packing=4 / ip_ratio=1.40 / aq=1:0.70
Language : German
Default : Yes
Forced : No
Audio
ID : 2
Format : AC-3
Format/Info : Audio Coding 3
Mode extension : CM (complete main)
Format settings, Endianness : Big
Codec ID : A_AC3
Duration : 28mn 33s
Bit rate mode : Constant
Bit rate : 448 Kbps
Channel(s) : 2 channels
Channel positions : Front: L R
Sampling rate : 48.0 KHz
Bit depth : 16 bits
Compression mode : Lossy
Stream size : 91.5 MiB (2%)
Language : English
Default : Yes
Forced : No
Menu
00:00:00.000 : :1
00:07:04.257 : :2
00:13:22.802 : :3
00:21:34.418 : :4

Для оценки 3д - Анимированные скрины


















Благодарности релизеру (8)

Торрент:

Статус:

Размер:

Зарегистрирован   [ 2013-06-16 16:59 ]

проверено

12.12 GB

 
 Мнение о фильме (2)





Спасибо ! Жаль что без перевода.
 

Спасибо за раздачу. Несколько разочарован фильмом с таким многообещающим названием, хотя как выяснилось оно полностью соответствуют сути-три куска сняты в Сингапурском парке птиц. Много повторов, а птиц мало для 1,5 часов: три райских птицы, венценосный голубь, пеликаны, бакланы. Ради общей продолжительности зачем-то оставили кадры птиц, находящихся за ветками.
 
Всеволодович Профиль 21-Июн-2013 16:23