Торренты   
 
 

 

Измеряя мир / Die Vermessung der Welt (Детлев Бук) [2012 г., BDRip, Full OverUnder]

Рейтинг 3D:
79 голосов
7.5
Рейтинг фильма:
81 голосов
7.2
 
Вы должны быть авторизированы,
чтобы ставить оценки


Измеряя мир / Die Vermessung der Welt
Год выпуска: 2012
Страна: Германия
Жанр: История, Приключения, Драма
Продолжительность: 02:02:56
Перевод: Профессиональный (полное дублирование)
Режиссер: Детлев Бук
В ролях: Флориан Давид Фиц, Альбрехт Шух, Балданпурев Самбуу, Аги Ариунсэйчан Даваачу, Жереми Капон, Вики Крипс, Карл Марковиц, Леннарт Хансель, Ядеа, Паскаль Фиедлер
Описание: Аристократу Александру фон Гумбольдту было с рождения предначертано наслаждаться жизнью в родовом замке, выезжать на светские рауты и охоту, а по выходным посещать церковь. Но он с детства мечтал о путешествиях.
Сыну бедняков Карлу Гауссу было с рождения предначертано повторить нелёгкую судьбу родителей. Но школьный учитель распознал его гений и выхлопотал стипендию для учебы в гимназии.
Александр Фон Гумбольдт путешествовал всю свою жизнь, постигая мир через собственный опыт и наблюдения — и мир приобрел учёного-энциклопедиста и основателя множества областей науки. Карл Гаусс всю жизнь прожил в Брауншвайге и Гёттингене, что не помешало ему изобрести теорию чисел и стать одним из величайших математиков всех времен. В 1828 году два исследователя и покорителя мира встретятся на Первом Всемирном конгрессе в Берлине…
Релиз группы:
Формат 3D: OverUnder BDRip, Full
Видео: AVC, High@L4.0, 1920х2160, 23,976 кадра/сек, 17,0 Мбит/сек
Аудио: Rus, AC3, 6 каналов, 448 Кбит/сек, 48,0 КГц
Аудио: Ger, DTS, 6 каналов, 1510 Кбит/сек, 48,0 КГц

Скриншоты




Media Info

Общее
Уникальный идентификатор : 231907016579482414617943812956662924147 (0xAE77AAB06A7968959161498A81120373)
Полное имя : E:\STEREO\Measuring The World_1080p_Rip by Dag13.mkv
Формат : Matroska
Версия формата : Version 2
Размер файла : 16,6 Гбайт
Продолжительность : 2 ч. 2 м.
Общий поток : 19,3 Мбит/сек
Название фильма : Измеряя мир / Die Vermessung der Welt / Measuring the World (3D) 2012
Дата кодирования : UTC 2013-06-17 13:53:30
Программа кодирования : mkvmerge v3.4.0 ('Rapunzel') сборка от May 15 2010 09:38:20
Библиотека кодирования : libebml v0.8.0 + libmatroska v0.9.0
Видео
Идентификатор : 1
Формат : AVC
Формат/Информация : Advanced Video Codec
Профиль формата : High@L5.0
Параметр CABAC формата : Да
Параметр ReFrames формата : 4 кадра
Идентификатор кодека : V_MPEG4/ISO/AVC
Продолжительность : 2 ч. 2 м.
Битрейт : 17,0 Мбит/сек
Ширина : 1920 пикселей
Высота : 2064 пикселя
Соотношение сторон : 0,930
Частота кадров : 23,976 кадра/сек
Цветовое пространство : YUV
Субдискретизация насыщенности : 4:2:0
Битовая глубина : 8 бит
Тип развёртки : Прогрессивная
Бит/(Пиксели*Кадры) : 0.179
Размер потока : 14,6 Гбайт (88%)
Заголовок : Rip by Dag13
Библиотека кодирования : x264 core 120 r2145 748fe16
Настройки программы : cabac=1 / ref=4 / deblock=1:-3:-3 / analyse=0x3:0x113 / me=umh / subme=9 / psy=1 / psy_rd=1.00:0.00 / mixed_ref=1 / me_range=16 / chroma_me=1 / trellis=2 / 8x8dct=1 / cqm=0 / deadzone=21,11 / fast_pskip=1 / chroma_qp_offset=-2 / threads=9 / sliced_threads=0 / nr=0 / decimate=1 / interlaced=0 / bluray_compat=0 / constrained_intra=0 / bframes=6 / b_pyramid=2 / b_adapt=2 / b_bias=0 / direct=3 / weightb=1 / open_gop=0 / weightp=2 / keyint=250 / keyint_min=23 / scenecut=40 / intra_refresh=0 / rc_lookahead=60 / rc=crf / mbtree=1 / crf=18.0 / qcomp=0.60 / qpmin=1 / qpmax=69 / qpstep=4 / ip_ratio=1.40 / aq=1:1.00
Язык : English
Default : Нет
Forced : Нет
Аудио #1
Идентификатор : 2
Формат : AC-3
Формат/Информация : Audio Coding 3
Расширение режима : CM (complete main)
Идентификатор кодека : A_AC3
Продолжительность : 2 ч. 2 м.
Вид битрейта : Постоянный
Битрейт : 448 Кбит/сек
Каналы : 6 каналов
Расположение каналов : Front: L C R, Side: L R, LFE
Частота : 48,0 КГц
Битовая глубина : 16 бит
Метод сжатия : С потерями
Размер потока : 394 Мбайт (2%)
Язык : Russian
Default : Да
Forced : Нет
Аудио #2
Идентификатор : 3
Формат : DTS
Формат/Информация : Digital Theater Systems
Идентификатор кодека : A_DTS
Продолжительность : 2 ч. 2 м.
Вид битрейта : Постоянный
Битрейт : 1510 Кбит/сек
Каналы : 6 каналов
Расположение каналов : Front: L C R, Side: L R, LFE
Частота : 48,0 КГц
Битовая глубина : 16 бит
Метод сжатия : С потерями
Размер потока : 1,30 Гбайт (8%)
Язык : German
Default : Нет
Forced : Нет
На встроенных ТВ-плейерах показывать НЕ будет!!!
Остальные раздачи этого фильма (3)
Благодарности релизеру (8)

Торрент:

Статус:

Размер:

Зарегистрирован   [ 2013-06-17 18:19 ]

проверено

16.58 GB

 
 Мнение о фильме (36)

1, 2  След.






Ух ты! Типа биографическоприключенческий? А скрины красивые, особенно 5-ый и 6-ой!
 

Vyacheslav27, только детям этот фильм "противопоказан"... :)
 

Ух ты!!!!Судя по сринам достойно!!!!!:)
 

Vyacheslav27, только детям этот фильм "противопоказан"... :)
ash61 , почему? конкретнее
 

Vyacheslav27, только детям этот фильм "противопоказан"... :)
ash61 , почему? конкретнее
скрины посмотрите,слишком много "секаса" )
 

А как сам фильм? Интересный? Как качество 3D? Вылеты есть?
 

кто нибудь смотрел хоть ?
 

Сейчас времени нет, посмотрел минут 30, фильм на любителя, но мне нравиться, потом досмотрю. Секаса пока не видел, но думаю немцы не подкачают :)
 

Очень хороший фильм. И 3Д на уровне.
 

Фильм отличный!Спасибо всем, кто выкладывает и раздает!
 

Неплохо,мне понравилось.3D на уровне.
 

Фильм понравился. Снят в своеобразной суперреалистичной манере, картинка стильно обработана ( хотя это сделало ее темноватой ). Немцы интересно поснимали в Южной Америке, много запоминающихся персонажей. 3D очень хорошее и комфортное, вылетов не заметил.
 

фильм хороший ,качество приличное,3д приличное. раздающему поклон за труды
 

3Д приличное, а фильм на любителя-мне не понравился...
 

Как здесь уже писали 3D на хорошем уровне, но не на всем протяжении фильма. Фильм на любителя, и не совсем точно раскрывает биографическую составляющую.
 

Скачали трое.Хоть оценки поставте)))
 

Фильм захватывающе интересен. Некоторое наукообразие не мешает. Эротические сцены достаточно целомудренны. 3D на высоте. Благодарю за раздачу.
 

Просто не думаю, что моё мнение сильно интересует сообщество.Но, что касается самого сайта, то и конвертация в 3Д(учитывая размер файлов для инета), здесь есть момент и самого источника для конвертации(т.н. лицензия, либо таковой не является, либо продавцы понимают под ней нечто совсем иное),- весьма достойна.Касаемо фильмов, то отношение к ним может зависеть от настроения, времени суток и т.д., плохих у Вас нет, ну а заинтересованность тем,или иным жанром зависит от смотрящего оные. Ну а вчерашняя научная фантастика превращается, либо в прошлое, либо в бред недоучки, фантазия (или фэнтези), если убрать из неё всю чепуху, внесённую для зрелищности, м. превратиться в историю, последняя же али в опиум для народа, или во всеобщий обман.
[URL=http://youtubedownloadersf.en.softonic.com/ ]youtube downloader[/URL]
 

Фильм понравился. 3Д тоже хорошее. Есть и вылеты, но без фанатизма. Спасибо большое.
 

Фигня. Для любителей автобиографий (да и то, подлинник или вымысел мне лично неизвестно). По мне - потраченное время. 3D- без вылетов и спецэфектов. Короче нудный фильм длинною 2 часа. Еле досмотрел.
 

Страница 1 из 2

1, 2  След.