Торренты   
 
 


Апокалипсис 5D (фильм-короткометражка из 5D кинотеатра.)

Рейтинг 3D:
6 голосов
5.5
Рейтинг фильма:
6 голосов
5.5
 
Вы должны быть авторизированы,
чтобы ставить оценки


Апокалипсис 5D (фильм-короткометражка из 5D кинотеатра.)
Жанр: Ужасы
Описание: К сожалению в 2D, зато в FullHD, т.е при использовании функции конвертации 2D в 3D, глубина и качество превосходят те ролики что есть, в общем заценить один раз можно что-бы потом перехотелось ролики для стерео атракционов искать!!!

Скриншоты



MediaInfo

Формат : AVI
Формат/Информация : Audio Video Interleave
Размер файла : 204 Мбайт
Продолжительность : 5 м. 38 с.
Общий поток : 5060 Кбит/сек
Программа кодирования : Lavf52.93.0
Формат : AVC
Формат/Информация : Advanced Video Codec
Профиль формата : High@L4.0
Параметр CABAC формата : Да
Параметр ReFrames формата : 3 кадра
Идентификатор кодека : H264
Продолжительность : 5 м. 38 с.
Битрейт : 4789 Кбит/сек
Ширина : 1920 пикселей
Высота : 1080 пикселей
Соотношение сторон : 16:9
Режим частоты кадров : Переменный
Частота кадров : 24,000 кадра/сек
Цветовое пространство : YUV
Субдискретизация насыщенности : 4:2:0
Битовая глубина : 8 бит
Тип развёртки : Прогрессивная
Бит/(Пиксели*Кадры) : 0.096
Размер потока : 191 Мбайт (93%)
Библиотека кодирования : x264 core 112
Настройки программы : cabac=1 / ref=3 / deblock=1:0:0 / analyse=0x3:0x113 / me=hex / subme=7 / psy=1 / psy_rd=1.00:0.00 / mixed_ref=1 / me_range=16 / chroma_me=1 / trellis=1 / 8x8dct=1 / cqm=0 / deadzone=21,11 / fast_pskip=1 / chroma_qp_offset=-2 / threads=1 / sliced_threads=0 / nr=0 / decimate=1 / interlaced=0 / constrained_intra=0 / bframes=3 / b_pyramid=0 / b_adapt=1 / b_bias=0 / direct=1 / weightb=1 / open_gop=0 / weightp=2 / keyint=250 / keyint_min=25 / scenecut=40 / intra_refresh=0 / rc_lookahead=40 / rc=abr / mbtree=1 / bitrate=4789 / ratetol=1.0 / qcomp=0.60 / qpmin=10 / qpmax=51 / qpstep=4 / ip_ratio=1.41 / aq=1:1.00
Формат : MPEG Audio
Версия формата : Version 1
Профиль формата : Layer 3
Режим : Joint stereo
Идентификатор кодека : 55
Идентификатор кодека/Подсказка : MP3
Продолжительность : 5 м. 38 с.
Вид битрейта : Постоянный
Битрейт : 320 Кбит/сек
Каналы : 2 канала
Частота : 48,0 КГц
Метод сжатия : С потерями
Размер потока : 12,9 Мбайт (6%)
Выравнивание : Соединение по промежуткам
Продолжительность промежутка : 24 мс. (0,58 видеокадр)
Библиотека кодирования : LAME3.98.4
Благодарности релизеру (0)

Торрент:

Статус:

Размер:

Зарегистрирован   [ 2013-06-19 23:14 ]

T временная

204 MB

 
 Мнение о фильме (7)





К сожалению 2Д версия ни как в наш трекер не укладывается. Если хотите обменяться файлами, то можно в разделе "Для нужд трекера" создать раздачу, на вроде звуковых дорожек, рабочих материалов, доп. материалов. Перенесу туда позже эту раздачу.
 

Не оценил. :( 2D в 3D -это не то 3D, о котором мы все мечтаем.
 

olivanos, это точно. Это явно не те дроиды, которых мы здесь ищем.
 

Топик был перенесен из форума Ролики в форум Раздачи для нужд трекера

Oreon
 

идиоты он не пойдёт не в 2д не в 3д только в 5д
 

удалите шлак
 

D.akaSS, Здравствуйте, а у Вас есть еще похожие видео, оч понравилось, если есть напишите пожалуйста на e-mail: vlad_adio@mail.ru