Торренты   
 
 

 

Хоббит: Пустошь Смауга в 3D, Трейлер / The Hobbit: The Desolation of Smaug in 3D, Trailer [2013 г., DCPrip, Anamorph OverUnder]

Рейтинг 3D:
34 голосов
8.2
Рейтинг фильма:
35 голосов
8.7
 
Вы должны быть авторизированы,
чтобы ставить оценки


Хоббит: Пустошь Смауга в 3D, Трейлер
The Hobbit: The Desolation of Smaug in 3D, Trailer
--Год выпуска: 2013
Страна: США, Новая Зеландия
Жанр: фэнтези, приключения, ...
Продолжительность: 00:02:11--Описание: После успешного перехода через Туманные горы, Торин и компания вынуждены обратиться за помощью к могучему незнакомцу, прежде чем отправиться в опасное Лихолесье без волшебника. Их компания обязана завершить свое путешествие к Одинокой горе, где Бэггинсу нужно будет найти потайную дверь, чтобы добраться до клада Смауга…--Формат 3d: Anamorph OverUnder (левый ракурс верхний)
Качество: DCPrip
Контейнер: mkv
Видео: AVC / 1920х1080 / 24 fps / 9902 Kbpss
Аудио: Русский / AC3 / 6 ch / 448 Kbps / 48 KHz--

MediaInfo:

Код:
General
Unique ID                      : 247157310536951504696159500309776968310 (0xB9F0C43B8E026D52AA20AC2F83B22A76)
Complete name                  : L:\_3D\3D-Trailers\_2013\3D\Trailer_TheHobbitTheDesolationOfSmaug(3D)HalfOU-abq.mkv
Format                         : Matroska
Format version                 : Version 2
File size                      : 165 MiB
Duration                       : 2mn 11s
Overall bit rate               : 10.6 Mbps
Encoded date                   : UTC 2013-06-30 13:36:20
Writing application            : mkvmerge v4.0.0 ('The Stars were mine') сборка от Jun  6 2010 16:18:42
Writing library                : libebml v1.0.0 + libmatroska v1.0.0
Video
ID                             : 1
Format                         : AVC
Format/Info                    : Advanced Video Codec
Format profile                 : High@L4.1
Format settings, CABAC         : Yes
Format settings, ReFrames      : 4 frames
Codec ID                       : V_MPEG4/ISO/AVC
Duration                       : 2mn 11s
Bit rate                       : 9 902 Kbps
Width                          : 1 920 pixels
Height                         : 1 080 pixels
Display aspect ratio           : 16:9
Frame rate mode                : Constant
Frame rate                     : 24.000 fps
Color space                    : YUV
Chroma subsampling             : 4:2:0
Bit depth                      : 8 bits
Scan type                      : Progressive
Bits/(Pixel*Frame)             : 0.199
Stream size                    : 155 MiB (94%)
Writing library                : x264 core 116 r2074 2641b9e
Encoding settings              : cabac=1 / ref=4 / deblock=1:-3:-3 / analyse=0x3:0x113 / me=umh / subme=9 / psy=1 / psy_rd=1.00:0.15 / mixed_ref=1 / me_range=32 / chroma_me=1 / trellis=2 / 8x8dct=1 / cqm=0 / deadzone=21,11 / fast_pskip=1 / chroma_qp_offset=-3 / threads=6 / sliced_threads=0 / nr=0 / decimate=1 / interlaced=0 / bluray_compat=0 / constrained_intra=0 / bframes=6 / b_pyramid=2 / b_adapt=2 / b_bias=0 / direct=3 / weightb=1 / open_gop=0 / weightp=2 / keyint=240 / keyint_min=24 / scenecut=40 / intra_refresh=0 / rc_lookahead=60 / rc=crf / mbtree=1 / crf=18.0 / qcomp=0.60 / qpmin=0 / qpmax=69 / qpstep=4 / vbv_maxrate=40000 / vbv_bufsize=40000 / crf_max=0.0 / nal_hrd=none / frame-packing=4 / ip_ratio=1.40 / aq=1:0.80
Language                       : English
Default                        : No
Forced                         : No
Audio
ID                             : 2
Format                         : AC-3
Format/Info                    : Audio Coding 3
Mode extension                 : CM (complete main)
Format settings, Endianness    : Big
Codec ID                       : A_AC3
Duration                       : 2mn 11s
Bit rate mode                  : Constant
Bit rate                       : 448 Kbps
Channel(s)                     : 6 channels
Channel positions              : Front: L C R, Side: L R, LFE
Sampling rate                  : 48.0 KHz
Bit depth                      : 16 bits
Compression mode               : Lossy
Stream size                    : 7.01 MiB (4%)
Language                       : Russian
Default                        : Yes
Forced                         : No

Скриншоты

Благодарности релизеру (25)

Торрент:

Статус:

Размер:

Зарегистрирован   [ 2013-06-30 17:50 ]

проверено

165 MB

 
 Мнение о фильме (11)





Когда планируеться !!!
 

На скрине 13 декабря
 

Джек – покоритель великанов и Рио 2 3D Трейлеры
 

посмотрел трейлер, фильм буду дожидаться в хорошем качестве. 3д хорошее, на уровне предыдущей части .
 

На скрине 13 декабря это мировая премьера, в России же будем смотреть 19 декабря, инфа 100% - http://thehobbitfilm.ru/o-filme-hobbit.html
 

как всегда качественно!!!
 

А когда на трекере будем смотреть? Уже видимо в 2014...
 

спасибо
 

Посмотрел. Мне так себе.Но каждый фильм ищет своего зрителя! ЗА РАЗДАЧУ СПАСИБО!
 

Когда планируеться !!!
В кинотеатрах показ начнется с 18 декабря, релиз на двд выйдет 17 апреля!
 

где можно скачать данный ролик в HFR 3D т.е. (48 кадров/сек)?