Торренты   
 
 

 

Измеряя мир / Die Vermessung der Welt [2012 г., BDrip, 1080p, Anamorph SideBySide]

Рейтинг 3D:
79 голосов
7.5
Рейтинг фильма:
81 голосов
7.2
 
Вы должны быть авторизированы,
чтобы ставить оценки


Измеряя мир / Die Vermessung der Welt
Год выпуска: 2012
Страна: Германия
Жанр: История, Приключения, Драма
Продолжительность: 02:02:56
Перевод: Профессиональный (полное дублирование)
Субтитры: есть
Режиссер: Детлев Бук
В ролях: Флориан Давид Фиц, Альбрехт Шух, Балданпурев Самбуу, Аги Ариунсэйчан Даваачу, Жереми Капон, Вики Крипс, Карл Марковиц, Леннарт Хансель, Ядеа, Паскаль Фиедлер
Описание:
Аристократу Александру фон Гумбольдту было с рождения предначертано наслаждаться жизнью в родовом замке, выезжать на светские рауты и охоту, а по выходным посещать церковь. Но он с детства мечтал о путешествиях.
Сыну бедняков Карлу Гауссу было с рождения предначертано повторить нелёгкую судьбу родителей. Но школьный учитель распознал его гений и выхлопотал стипендию для учебы в гимназии.
Александр Фон Гумбольдт путешествовал всю свою жизнь, постигая мир через собственный опыт и наблюдения — и мир приобрел учёного-энциклопедиста и основателя множества областей науки. Карл Гаусс всю жизнь прожил в Брауншвайге и Гёттингене, что не помешало ему изобрести теорию чисел и стать одним из величайших математиков всех времен. В 1828 году два исследователя и покорителя мира встретятся на Первом Всемирном конгрессе в Берлине…
Качество: BDrip by Alexman©
Формат 3D: Anamorph SideBySide
Порядок ракурсов: Левый ракурс первый
Видео: AVC / 23,976 fps / 1920х1080p / 8 256 Kbps
Аудио 1: Русский дублированный / AC3 / 48 KHz / 5.1 ch / 448 Kbps
Аудио 2: Немецкий оригинальный / AC3 / 48 KHz / 5.1 ch / 448 Kbps
Субтитры: русские полные, вшитые .srt

MediaInfo

General
Unique ID : 217110787929117466388001588087235187690 (0xA356044B2F25DF6992843E738F5693EA)
Complete name : Die Vermessung der Welt [Измеряя мир] (2012) DUB hSbS 1080p by Alexman©.mkv
Format : Matroska
Format version : Version 4 / Version 2
File size : 8.02 GiB
Duration : 2h 2mn
Overall bit rate : 9 337 Kbps
Movie name : Die Vermessung der Welt [Измеряя мир]
Encoded date : UTC 2013-06-25 07:14:15
Writing application : mkvmerge v6.2.0 ('Promised Land') built on Apr 28 2013 12:22:01
Writing library : libebml v1.3.0 + libmatroska v1.4.0
Video
ID : 1
Format : AVC
Format/Info : Advanced Video Codec
Format profile : High@L4.1
Format settings, CABAC : Yes
Format settings, ReFrames : 4 frames
Codec ID : V_MPEG4/ISO/AVC
Duration : 2h 2mn
Bit rate : 8 256 Kbps
Width : 1 920 pixels
Height : 1 080 pixels
Display aspect ratio : 16:9
Frame rate mode : Constant
Frame rate : 23.976 fps
Color space : YUV
Chroma subsampling : 4:2:0
Bit depth : 8 bits
Scan type : Progressive
Bits/(Pixel*Frame) : 0.166
Stream size : 7.09 GiB (88%)
Title : Die Vermessung der Welt
Writing library : x264 core 133 r2334 a3ac64b
Encoding settings : cabac=1 / ref=4 / deblock=1:-3:-3 / analyse=0x3:0x113 / me=umh / subme=9 / psy=1 / psy_rd=1.00:0.15 / mixed_ref=1 / me_range=32 / chroma_me=1 / trellis=2 / 8x8dct=1 / cqm=0 / deadzone=21,11 / fast_pskip=1 / chroma_qp_offset=-3 / threads=9 / lookahead_threads=1 / sliced_threads=0 / nr=0 / decimate=1 / interlaced=0 / bluray_compat=0 / constrained_intra=0 / bframes=4 / b_pyramid=2 / b_adapt=2 / b_bias=0 / direct=3 / weightb=1 / open_gop=0 / weightp=2 / keyint=250 / keyint_min=23 / scenecut=40 / intra_refresh=0 / rc_lookahead=60 / rc=crf / mbtree=1 / crf=18.0 / qcomp=0.60 / qpmin=0 / qpmax=69 / qpstep=4 / vbv_maxrate=40000 / vbv_bufsize=40000 / crf_max=0.0 / nal_hrd=none / ip_ratio=1.40 / aq=1:0.70
Language : German
Default : Yes
Forced : No
Audio #1
ID : 2
Format : AC-3
Format/Info : Audio Coding 3
Mode extension : CM (complete main)
Format settings, Endianness : Big
Codec ID : A_AC3
Duration : 2h 2mn
Bit rate mode : Constant
Bit rate : 448 Kbps
Channel(s) : 6 channels
Channel positions : Front: L C R, Side: L R, LFE
Sampling rate : 48.0 KHz
Bit depth : 16 bits
Compression mode : Lossy
Stream size : 394 MiB (5%)
Title : Русский дублированный
Language : Russian
Default : Yes
Forced : Yes
Audio #2
ID : 3
Format : AC-3
Format/Info : Audio Coding 3
Mode extension : CM (complete main)
Format settings, Endianness : Big
Codec ID : A_AC3
Duration : 2h 2mn
Bit rate mode : Constant
Bit rate : 448 Kbps
Channel(s) : 6 channels
Channel positions : Front: L C R, Side: L R, LFE
Sampling rate : 48.0 KHz
Bit depth : 16 bits
Compression mode : Lossy
Stream size : 394 MiB (5%)
Title : Deutsch Original
Language : German
Default : No
Forced : No
Text
ID : 4
Format : UTF-8
Codec ID : S_TEXT/UTF8
Codec ID/Info : UTF-8 Plain Text
Title : Русские полные
Language : Russian
Default : No
Forced : No

Скриншоты




Анимированные скриншоты для оценки 3Д-эффекта




Проверено на ТВ Samsung 40C7000 и Samsung 46D7000
Остальные раздачи этого фильма (3)
Благодарности релизеру (27)

Торрент:

Статус:

Размер:

Зарегистрирован   [ 2013-06-25 14:12 ]

проверено

8.02 GB

 
 Мнение о фильме (36)

1, 2  След.






Ух ты! Типа биографическоприключенческий? А скрины красивые, особенно 5-ый и 6-ой!
 

Vyacheslav27, только детям этот фильм "противопоказан"... :)
 

Ух ты!!!!Судя по сринам достойно!!!!!:)
 

Vyacheslav27, только детям этот фильм "противопоказан"... :)
ash61 , почему? конкретнее
 

Vyacheslav27, только детям этот фильм "противопоказан"... :)
ash61 , почему? конкретнее
скрины посмотрите,слишком много "секаса" )
 

А как сам фильм? Интересный? Как качество 3D? Вылеты есть?
 

кто нибудь смотрел хоть ?
 

Сейчас времени нет, посмотрел минут 30, фильм на любителя, но мне нравиться, потом досмотрю. Секаса пока не видел, но думаю немцы не подкачают :)
 

Очень хороший фильм. И 3Д на уровне.
 

Фильм отличный!Спасибо всем, кто выкладывает и раздает!
 

Неплохо,мне понравилось.3D на уровне.
 

Фильм понравился. Снят в своеобразной суперреалистичной манере, картинка стильно обработана ( хотя это сделало ее темноватой ). Немцы интересно поснимали в Южной Америке, много запоминающихся персонажей. 3D очень хорошее и комфортное, вылетов не заметил.
 

фильм хороший ,качество приличное,3д приличное. раздающему поклон за труды
 

3Д приличное, а фильм на любителя-мне не понравился...
 

Как здесь уже писали 3D на хорошем уровне, но не на всем протяжении фильма. Фильм на любителя, и не совсем точно раскрывает биографическую составляющую.
 

Скачали трое.Хоть оценки поставте)))
 

Фильм захватывающе интересен. Некоторое наукообразие не мешает. Эротические сцены достаточно целомудренны. 3D на высоте. Благодарю за раздачу.
 

Просто не думаю, что моё мнение сильно интересует сообщество.Но, что касается самого сайта, то и конвертация в 3Д(учитывая размер файлов для инета), здесь есть момент и самого источника для конвертации(т.н. лицензия, либо таковой не является, либо продавцы понимают под ней нечто совсем иное),- весьма достойна.Касаемо фильмов, то отношение к ним может зависеть от настроения, времени суток и т.д., плохих у Вас нет, ну а заинтересованность тем,или иным жанром зависит от смотрящего оные. Ну а вчерашняя научная фантастика превращается, либо в прошлое, либо в бред недоучки, фантазия (или фэнтези), если убрать из неё всю чепуху, внесённую для зрелищности, м. превратиться в историю, последняя же али в опиум для народа, или во всеобщий обман.
[URL=http://youtubedownloadersf.en.softonic.com/ ]youtube downloader[/URL]
 

Фильм понравился. 3Д тоже хорошее. Есть и вылеты, но без фанатизма. Спасибо большое.
 

Фигня. Для любителей автобиографий (да и то, подлинник или вымысел мне лично неизвестно). По мне - потраченное время. 3D- без вылетов и спецэфектов. Короче нудный фильм длинною 2 часа. Еле досмотрел.
 

Страница 1 из 2

1, 2  След.