Торренты   
 
 

 

Возвращение Буратино 3D

Рейтинг 3D:
25 голосов
2.3
Рейтинг фильма:
27 голосов
2.7
 
Вы должны быть авторизированы,
чтобы ставить оценки


Возвращение Буратино 3D
Год выпуска: 2012
Страна: Россия
Жанр: мультфильм, приключения, семейный
Продолжительность: 01:16:37
Перевод: Не требуется
Режиссеры: Екатерина Михайлова
Роли озвучивали: Олег Табаков, Оскар Кучера, Нонна Гришаева, Полина Кутепова, Лидия Аветисян, Ольга Прокофьева, Борис Смолкин, Леонид Якубович, Мадлен Джабраилова, Елена Симонова
Описание: В современной нам Москве Карабас-Барабас, сменив имидж и имя, открывает фабрику-конвейер по производству игрушек. В цехах высотного здания из «сырья» - старых игрушек всех сортов и форм, - производятся две «инновационные» унифицированные модели: робот Зубастик для мальчиков и кукла Гламушка для девочек. Господин Баскара - так сейчас следует называть Карабаса, - уверен, что будущее (и огромные прибыли!) - именно за его моделями.
Качество: BDrip by Alexman©
Формат 3D: Anamorph SideBySide / Горизонтальная анаморфная стереопара
Порядок ракурсов: левый ракурс первый
Видео: AVC, High@L4.1, 1920x1080, 23.976 fps, 9 124 Kbps
Аудио: Русский / AC3 / 48 KHz / 5.1 ch / 640 Kbps

MediaInfo

General
Unique ID : 215423004253724920539469278591647335505 (0xA210F62241A1AA8C972A6999A661C451)
Complete name : Возвращение Буратино (2013) hSbS 1080p by Alexman©.mkv
Format : Matroska
Format version : Version 4 / Version 2
File size : 5.33 GiB
Duration : 1h 16mn
Overall bit rate : 9 962 Kbps
Movie name : Возвращение Буратино (2013) hSbS 1080p by Alexman©
Encoded date : UTC 2013-06-26 06:24:52
Writing application : mkvmerge v6.2.0 ('Promised Land') built on Apr 28 2013 12:22:01
Writing library : libebml v1.3.0 + libmatroska v1.4.0
Video
ID : 1
Format : AVC
Format/Info : Advanced Video Codec
Format profile : High@L4.1
Format settings, CABAC : Yes
Format settings, ReFrames : 4 frames
Codec ID : V_MPEG4/ISO/AVC
Duration : 1h 16mn
Bit rate : 9 124 Kbps
Width : 1 920 pixels
Height : 1 080 pixels
Display aspect ratio : 16:9
Frame rate mode : Constant
Frame rate : 23.976 fps
Color space : YUV
Chroma subsampling : 4:2:0
Bit depth : 8 bits
Scan type : Progressive
Bits/(Pixel*Frame) : 0.184
Stream size : 4.88 GiB (92%)
Title : Возвращение Буратино (2013) hSbS 1080p by Alexman©
Writing library : x264 core 133 r2334 a3ac64b
Encoding settings : cabac=1 / ref=4 / deblock=1:-3:-3 / analyse=0x3:0x113 / me=umh / subme=9 / psy=1 / psy_rd=1.00:0.15 / mixed_ref=1 / me_range=32 / chroma_me=1 / trellis=2 / 8x8dct=1 / cqm=0 / deadzone=21,11 / fast_pskip=1 / chroma_qp_offset=-3 / threads=9 / lookahead_threads=1 / sliced_threads=0 / nr=0 / decimate=1 / interlaced=0 / bluray_compat=0 / constrained_intra=0 / bframes=4 / b_pyramid=2 / b_adapt=2 / b_bias=0 / direct=3 / weightb=1 / open_gop=0 / weightp=2 / keyint=250 / keyint_min=23 / scenecut=40 / intra_refresh=0 / rc_lookahead=60 / rc=crf / mbtree=1 / crf=17.0 / qcomp=0.60 / qpmin=0 / qpmax=69 / qpstep=4 / vbv_maxrate=40000 / vbv_bufsize=40000 / crf_max=0.0 / nal_hrd=none / ip_ratio=1.40 / aq=1:0.70
Language : Russian
Default : Yes
Forced : Yes
Audio
ID : 2
Format : AC-3
Format/Info : Audio Coding 3
Mode extension : CM (complete main)
Format settings, Endianness : Big
Codec ID : A_AC3
Duration : 1h 16mn
Bit rate mode : Constant
Bit rate : 640 Kbps
Channel(s) : 6 channels
Channel positions : Front: L C R, Side: L R, LFE
Sampling rate : 48.0 KHz
Bit depth : 16 bits
Compression mode : Lossy
Stream size : 351 MiB (6%)
Title : Оригинальный русский
Language : Russian
Default : Yes
Forced : Yes

Скриншоты



Анимированные скриншоты для оценки 3Д-эффекта



Проверено на ТВ Samsung 40C7000, Samsung 46D7000 и Philips 42PFL7606H
Остальные раздачи этого фильма (2)
Благодарности релизеру (3)

Торрент:

Статус:

Размер:

Зарегистрирован   [ 2013-06-26 11:13 ]

* не проверено

5.33 GB

 
 Мнение о фильме (19)





"Ирония судьбы-2", "Джентльмены удачи-2", теперь и до Буратино добрались...Неужели опять пошли на все, лишь бы бабла заработать? Боюсь смотреть...
P.S. Релизеру, конечно, большое спасибо.
 

судя по скринам - это какой-то eбан8й пи3деТС!
Извините.
 

кошмар , куда мир катится???
 

Ну зачем мультику с такой рисовкой 3D ?!!
 

Спасибо всем! КАЧАТЬ НЕ БУДУ! Но спасибо что выложили!
 

Спасибо всем! КАЧАТЬ НЕ БУДУ! Но спасибо что выложили!
Жжошь)))
 

За две недели проката данного фильма в нашем 7 ми зальном кинотеатре было всего 4 сеанса по 5-10 человек
 

Отвратительная картинка. Левый и правый ракурсы разного контраста - это даже на скринах видно. В глазах постоянная рябь и блики.
 

Аццкий ацтой! У меня племянник 6 лет рисует лучше! Анниматоров фтопку!
 

да уж, 3d бред
 

Посмотрите , вслушайтесь... он добрый. "Следствие ведут колобки" все смотрели и про наркотики тогда не думали, а теперь видимо попробовали и на личном опыте сравниваете.!?
 

Фильм не понравился. 3D - так себе.
 

Нет слов! Издевательство над Советской классикой!
 

за релиз - спасибо. но МОСКАЛИ,- в конец зажрались, ладно,- эти пробки, решаемые, всем бюджетом Росси, но этот мульт, просто издевательство. ведь, все участники этого проекта - бабки получили...
 

Даже не знаю.
Действительно : прорисовка героев, как "капитан Врунгель, доктор Айболит (мульт-мюзикл)"
Ага.
Буратило конечно герой - бесспорно.
А вот в гламурную надо всем.....
 

всем привет и с праздником! Помогите,подскажите как скачивать фильмы и мультики с этого сайта.
 

Наталья28, привет, спс.
как тут качать - http://torrents3d.ru/article/56
 

Детям не показывайте, DD5,1 - отличное, нашему автору спасибо. Диски с продажи - изъять. Катю Мехайлову - под арест, за загубленные детские души. Смотрел 15 мин ,плювался, матюгался, хаял всю Россию, куда-же б катится, аж напиться захотелось - стресс снять. Стыд - нашей режессуре!
 

идиоты как такое вообще можно выпускать, а ведь кто-то лицензию купит