Торренты   
 
 

 

Диномама 3D / Dino Time [2012, BDrip, half1080p, Anamorph SideBySide]

Рейтинг 3D:
17 голосов
8.4
Рейтинг фильма:
17 голосов
7.8
 
Вы должны быть авторизированы,
чтобы ставить оценки


© Закрыто правообладателем
Год выпуска: 2012
Страна: США, Корея Южная
Жанр: мультфильм, комедия, приключения, семейный
Продолжительность: 01:25:25
Перевод: Профессиональный (полное дублирование)
Режиссеры: Юн-сок Чхве, Джон Кафка
Актёры озвучания:
Джейн Линч, Роб Шнайдер, Тара Стронг, Памела Адлон, Стивен Болдуин, Мелани Гриффит, Уильям Болдуин, Юрий Ловенталь, Джессика Ди Чикко, Мелани Абрамофф
Описание: Эрни, его сестра Джулия и лучший друг Макс — неразлучная троица. Однажды, друзья без спроса залезли в странное устройство, которое сконструировал папа Макса, и случайно нажали кнопку запуска. Устройство оказалось машиной времени, и ребята очутились в Юрском периоде, прямо в гнезде Тираннозавра. Но вот радость: самка гигантского ящера приняла ребят за своих детенышей. Но не все, конечно, так безоблачно в мире хищников. Кое-кто мечтает полакомиться непрошеными гостями! Друзьям нужно немедленно уносить ноги и подумать о возвращении. Но как это сделать, если важная деталь машины исчезла?
Качество: BDrip by Alexman©
Формат 3D: Anamorph SideBySide / Горизонтальная анаморфная стереопара
Порядок ракурсов: левый ракурс первый
Видео: MPEG4 AVC, 8 046 Kbps, 1920x1080, 23.976 кадр/с
Аудио: Русский дублированный перевод / AC3 / 48 KHz / 5.1 ch / 640 Kbps

MediaInfo

General
Unique ID : 220533615670786677372586264827537892136 (0xA5E93ABB09174E98981C7A676223A328)
Complete name : Dino Time [Диномама 3D] (2012) DUB hSbS 1080p by Alexman©.mkv
Format : Matroska
Format version : Version 4 / Version 2
File size : 5.29 GiB
Duration : 1h 25mn
Overall bit rate : 8 862 Kbps
Movie name : Dino Time [Диномама 3D] (2012) DUB hSbS 1080p by Alexman©
Encoded date : UTC 2013-06-05 06:59:05
Writing application : mkvmerge v6.2.0 ('Promised Land') built on Apr 28 2013 12:22:01
Writing library : libebml v1.3.0 + libmatroska v1.4.0
Video
ID : 1
Format : AVC
Format/Info : Advanced Video Codec
Format profile : High@L4.1
Format settings, CABAC : Yes
Format settings, ReFrames : 4 frames
Codec ID : V_MPEG4/ISO/AVC
Duration : 1h 25mn
Bit rate : 8 046 Kbps
Width : 1 920 pixels
Height : 1 080 pixels
Display aspect ratio : 16:9
Frame rate mode : Constant
Frame rate : 23.976 fps
Color space : YUV
Chroma subsampling : 4:2:0
Bit depth : 8 bits
Scan type : Progressive
Bits/(Pixel*Frame) : 0.162
Stream size : 4.80 GiB (91%)
Title : Dino Time [Диномама 3D] (2012) DUB hSbS 1080p by Alexman©
Writing library : x264 core 129 r2245 bc13772
Encoding settings : cabac=1 / ref=4 / deblock=1:-3:-3 / analyse=0x3:0x113 / me=umh / subme=9 / psy=1 / psy_rd=1.00:0.15 / mixed_ref=1 / me_range=32 / chroma_me=1 / trellis=2 / 8x8dct=1 / cqm=0 / deadzone=21,11 / fast_pskip=1 / chroma_qp_offset=-3 / threads=4 / lookahead_threads=1 / sliced_threads=0 / nr=0 / decimate=1 / interlaced=0 / bluray_compat=0 / constrained_intra=0 / bframes=4 / b_pyramid=2 / b_adapt=2 / b_bias=0 / direct=3 / weightb=1 / open_gop=0 / weightp=2 / keyint=250 / keyint_min=23 / scenecut=40 / intra_refresh=0 / rc_lookahead=60 / rc=crf / mbtree=1 / crf=17.0 / qcomp=0.60 / qpmin=0 / qpmax=69 / qpstep=4 / vbv_maxrate=40000 / vbv_bufsize=40000 / crf_max=0.0 / nal_hrd=none / ip_ratio=1.40 / aq=1:0.70
Language : English
Default : Yes
Forced : No
Audio
ID : 2
Format : AC-3
Format/Info : Audio Coding 3
Mode extension : CM (complete main)
Format settings, Endianness : Big
Codec ID : A_AC3
Duration : 1h 25mn
Bit rate mode : Constant
Bit rate : 640 Kbps
Channel(s) : 6 channels
Channel positions : Front: L C R, Side: L R, LFE
Sampling rate : 48.0 KHz
Bit depth : 16 bits
Compression mode : Lossy
Stream size : 391 MiB (7%)
Title : Русский дублированный
Language : Russian
Default : Yes
Forced : Yes

Скриншоты



Анимированные скриншоты для оценки 3Д-эффекта



Проверено на ТВ Samsung 40C7000, Samsung 46D7000 и Philips 42PFL7606H
Благодарности релизеру (12)

Торрент:

Статус:

Размер:

Зарегистрирован   [ 2013-06-26 15:11 ]

© закрыто правообладателем

5.29 GB

 
 Мнение о фильме (6)





uau klasno)))spasibo)))
 

Отличный мульт для просмотра всей семьей. Очень позитивный.
 

замечательный мультфильм:)
 

Неплохо для дитя.
 

Посмотрел,мультик нормуль!!!
 

Мультфильм, на мой взгляд, довольно примитивный, для малышей.