Торренты   
 
 


Апартаменты 1303 / Apartment 1303 [2012 г., BDrip, 1080p, Anamorph SideBySide]

Рейтинг 3D:
53 голосов
5.2
Рейтинг фильма:
51 голосов
4.6
 
Вы должны быть авторизированы,
чтобы ставить оценки


Апартаменты 1303 / Apartment 1303
Год выпуска: 2012
Страна: США, Канада
Студия: MonteCristo Entertainment, ImageWorks Entertainment
Жанр: Ужасы, Триллер
Продолжительность: 01:25:14
Перевод: Профессиональный (полное дублирование)
Режиссер: Мишель Таверна
В ролях:
Миша Бартон, Ребекка Де Морнэй, Джулианна Мишель, Кори Севьер, Джон Дил, Джиллиан Олтмэн, Кэтерин Клилэнд, Франческо Джаннини, Кэтлин Мэкки, Джессика Малька
Описание:
В этой квартире всегда рады новым жильцам. Но никто не знает о легенде проклятия, которое здесь обитает. Говорят в апартаментах N1303, живут призраки матери и дочери, погибшие насильственной смертью. Не найдя покоя, духи мертвых жаждят отомстить своим убийцам. Каждый, кто переступает порог комнаты ужаса, становится их заложником. И еще никому не удалось вырваться из плена смерти...
Формат 3D: Anamorph SideBySide
Качество: BDrip
Контейнер: MKV
Видео: AVC / 23,976 fps / 1920х1080p / 4 307 Kbps
Аудио:
№1 - Русский дублированный / AC3 / 48 KHz / 5.1 ch / 384 Kbps
№2 - Английский / AC3 / 48 KHz / 5.1 ch / 640 KbpsПроверено на ТВ Samsung 40C7000 и Samsung 46D7000

MediaInfo

General
Unique ID : 240845892600198802112143335107011452029 (0xB5313B4DAF892912954A38C52C429C7D)
Complete name : Apartment 1303 3D [Апартаменты 1303] (2012) DUB hSbS 1080p by Alexman©.mkv
Format : Matroska
Format version : Version 4 / Version 2
File size : 3.24 GiB
Duration : 1h 25mn
Overall bit rate : 5 439 Kbps
Movie name : Apartment 1303 3D [Апартаменты 1303] (2012) DUB hSbS 1080p by Alexman©
Encoded date : UTC 2013-06-05 09:09:59
Writing application : mkvmerge v6.2.0 ('Promised Land') built on Apr 28 2013 12:22:01
Writing library : libebml v1.3.0 + libmatroska v1.4.0
Video
ID : 1
Format : AVC
Format/Info : Advanced Video Codec
Format profile : High@L4.1
Format settings, CABAC : Yes
Format settings, ReFrames : 4 frames
Codec ID : V_MPEG4/ISO/AVC
Duration : 1h 25mn
Bit rate : 4 307 Kbps
Width : 1 920 pixels
Height : 1 080 pixels
Display aspect ratio : 16:9
Frame rate mode : Constant
Frame rate : 23.976 fps
Color space : YUV
Chroma subsampling : 4:2:0
Bit depth : 8 bits
Scan type : Progressive
Bits/(Pixel*Frame) : 0.087
Stream size : 2.56 GiB (79%)
Title : Apartment 1303 3D [Апартаменты 1303] (2012) DUB hSbS 1080p by Alexman©
Writing library : x264 core 129 r2245 bc13772
Encoding settings : cabac=1 / ref=4 / deblock=1:-3:-3 / analyse=0x3:0x113 / me=umh / subme=9 / psy=1 / psy_rd=1.00:0.15 / mixed_ref=1 / me_range=32 / chroma_me=1 / trellis=2 / 8x8dct=1 / cqm=0 / deadzone=21,11 / fast_pskip=1 / chroma_qp_offset=-3 / threads=8 / lookahead_threads=1 / sliced_threads=0 / nr=0 / decimate=1 / interlaced=0 / bluray_compat=0 / constrained_intra=0 / bframes=4 / b_pyramid=2 / b_adapt=2 / b_bias=0 / direct=3 / weightb=1 / open_gop=0 / weightp=2 / keyint=250 / keyint_min=23 / scenecut=40 / intra_refresh=0 / rc_lookahead=60 / rc=crf / mbtree=1 / crf=18.0 / qcomp=0.60 / qpmin=0 / qpmax=69 / qpstep=4 / vbv_maxrate=40000 / vbv_bufsize=40000 / crf_max=0.0 / nal_hrd=none / ip_ratio=1.40 / aq=1:0.70
Language : English
Default : Yes
Forced : No
Audio #1
ID : 2
Format : AC-3
Format/Info : Audio Coding 3
Mode extension : CM (complete main)
Format settings, Endianness : Big
Codec ID : A_AC3
Duration : 1h 25mn
Bit rate mode : Constant
Bit rate : 384 Kbps
Channel(s) : 6 channels
Channel positions : Front: L C R, Side: L R, LFE
Sampling rate : 48.0 KHz
Bit depth : 16 bits
Compression mode : Lossy
Stream size : 234 MiB (7%)
Title : Русский дублированный
Language : Russian
Default : Yes
Forced : Yes
Audio #2
ID : 3
Format : AC-3
Format/Info : Audio Coding 3
Mode extension : CM (complete main)
Format settings, Endianness : Big
Codec ID : A_AC3
Duration : 1h 25mn
Bit rate mode : Constant
Bit rate : 640 Kbps
Channel(s) : 6 channels
Channel positions : Front: L C R, Side: L R, LFE
Sampling rate : 48.0 KHz
Bit depth : 16 bits
Compression mode : Lossy
Stream size : 390 MiB (12%)
Title : English original
Language : English
Default : No
Forced : No

Скриншоты



Анимированые скриншоты ( для оценки 3D)



Остальные раздачи этого фильма (3)
Благодарности релизеру (6)

Торрент:

Статус:

Размер:

Зарегистрирован   [ 2013-06-27 09:22 ]

проверено

3.24 GB

 
 Мнение о фильме (27)

1, 2  След.






Как фильм? Стоящий?
 

судя по рейтингу на кинопоиске и гроша не стоит)
 

отпишитесь пожалуйста кто смотрел?
 

Купить телик за такие деньги , что бы смотреть такое угрюмое ....... , нонсенс !
 

Более подробно сюжет можно описать то? Понятно, что нонсенс, хотя про что?
 

Более подробно сюжет можно описать то? Понятно, что нонсенс, хотя про что?
http://www.kinopoisk.ru/film/581644/
 

Фильм на разок) Но спасибо и на этом!!!
 

Фильм еще не смотрел целиком,но на перемотке вроде все нормально в плане 3д!
 

Так как все таки заставив себя смог досмотреть до конца, то 2 балла фильм заслужил, а от 3D болели глаза, то ли сильное раздвоение, то ли еще что поэтому 1. Давно такой хрени не смотрел (ИМХО конечно).
 

Сюжет слабоват, потому что предсказуем с самого начала. Но девушки симпатичные, им сочувствуешь, психованная мамаша тоже хороша. Вот 3D вроде оптическое, но не поражает, и даже местами некомфортное. Посмотреть разок можно. Да, и в фильме перепутан порядок ракурсов - первым идет не левый, как обычно, а правый. Не забудьте переключить!
 

Фильм на один раз...
 

смотрел в кинотеатре, еле досмотрел чтобы встать и не уйти, шлакоотвал редкостный! в топку
 

Полный бред!!!!!!!!!!
 

коряво
 

не советую
 

Фильм посмотреть можно один раз
 

Фильм неинтересен
 

полная ерунда избитая тема да еще и снято коряво 3д эффектов ваще ноль
 

На один разок под пивасик
 

Когда сильно скучно смотреть можно есть на что поворчать.
 

Страница 1 из 2

1, 2  След.