Торренты   
 
 


Тарзан-размазня / Gummi T / Ivan The Incredible [2012, BDRip, half1080, Anamorph OverUnder]

Рейтинг 3D:
8 голосов
6.5
Рейтинг фильма:
8 голосов
6.6
 
Вы должны быть авторизированы,
чтобы ставить оценки


© Закрыто правообладателем
Год выпуска: 2012
Страна: Дания (Crone Film Produktion A/S, Wil Film ApS)
Жанр: Мультфильм, Комедия, Семейный
Продолжительность: 01:20:33
Перевод: Профессиональный (многоголосый закадровый) (R5)
Режиссер: Михаэль Хэгнер / Michael Hegner
Роли озвучивали (на датском): Туре Линдхардт, Николай Коперникус, Синье Эгхольм Олсен, Сесиль Стенспил, Карен-Лиза Мюнстер, Бьярне Хенриксен, Йенс Андерсен, Пав Хенриксон, Эсбен Претцманн, Йенс Якоб Тихсен
Описание: Ваня — типичный лузер и неудачник. Над ним измываются в школе и пилят дома. Однажды он решает измениться и тут же встречает… самую настоящую ведьму. Та соглашается исполнить любое его желание. Парень выбирает суперсилу. Но колдунья оказалась непутевой и выполнила просьбу всего на один день! Можно ли изменить свою жизнь за 24 часа, обладая шикарной внешностью? Наш маленький Геракл Ваня ответит на этот вопрос!
Доп. информация: 3Д неглубокое. Также не лишне будет обратить внимание на рейтинги и почитать отзывы, например, в 2Д релизах другого трекера.-Премьера: 16 мая 2012
Релиз на DVD: 18 марта 2013

. .
-Качество: BDRip (by Ash61)
Контейнер: MKV
Формат 3D: Anamorph OverUnder / Вертикальная анаморфная стереопара
Порядок ракурсов: левый ракурс первый-Видео: AVC / 23,976 fps / 1920х1080p / 6 388 Kbps
Аудио:
#1 - Русский / AC3 / 48 KHz / 2.0 ch / 448 Kbps (MVO - R5 [edit by Ash61])
#2 - Английский / AC3 / 48 KHz / 5.1 ch / 640 Kbps
Субтитры: Отсутствуют

MediaInfo

General
Unique ID : 194085103106741359912790194265527873993 (0x92036E6206F3DA4BA3CEA8BBCFF6F1C9)
Complete name : G:\Downloads\GummiT(3D)2012(Ash61).mkv
Format : Matroska
Format version : Version 2
File size : 4.29 GiB
Duration : 1h 20mn
Overall bit rate : 7 628 Kbps
Movie name : Тарзан-размазня / Gummi T / Ivan The Incredible (3D) 2012
Encoded date : UTC 2013-07-10 16:48:39
Writing application : mkvmerge v5.8.0 ('No Sleep / Pillow') built on Sep 2 2012 15:37:04
Writing library : libebml v1.2.3 + libmatroska v1.3.0
Video
ID : 1
Format : AVC
Format/Info : Advanced Video Codec
Format profile : High@L4.1
Format settings, CABAC : Yes
Format settings, ReFrames : 4 frames
Codec ID : V_MPEG4/ISO/AVC
Duration : 1h 20mn
Bit rate : 6 388 Kbps
Width : 1 920 pixels
Height : 1 080 pixels
Display aspect ratio : 16:9
Frame rate mode : Constant
Frame rate : 23.976 fps
Color space : YUV
Chroma subsampling : 4:2:0
Bit depth : 8 bits
Scan type : Progressive
Bits/(Pixel*Frame) : 0.128
Stream size : 3.59 GiB (84%)
Title : BDRip by Ash61
Writing library : x264 core 129 r2245 bc13772
Encoding settings : cabac=1 / ref=4 / deblock=1:-3:-3 / analyse=0x3:0x113 / me=umh / subme=9 / psy=1 / psy_rd=1.00:0.15 / mixed_ref=1 / me_range=32 / chroma_me=1 / trellis=2 / 8x8dct=1 / cqm=0 / deadzone=21,11 / fast_pskip=1 / chroma_qp_offset=-3 / threads=12 / lookahead_threads=2 / sliced_threads=0 / nr=0 / decimate=1 / interlaced=0 / bluray_compat=0 / constrained_intra=0 / bframes=9 / b_pyramid=2 / b_adapt=2 / b_bias=0 / direct=3 / weightb=1 / open_gop=0 / weightp=2 / keyint=250 / keyint_min=23 / scenecut=40 / intra_refresh=0 / rc_lookahead=60 / rc=crf / mbtree=1 / crf=18.0 / qcomp=0.70 / qpmin=0 / qpmax=69 / qpstep=4 / vbv_maxrate=40000 / vbv_bufsize=30000 / crf_max=0.0 / nal_hrd=none / frame-packing=4 / ip_ratio=1.40 / aq=1:0.70
Language : Danish
Default : Yes
Forced : No
Audio #1
ID : 2
Format : AC-3
Format/Info : Audio Coding 3
Mode extension : CM (complete main)
Format settings, Endianness : Big
Codec ID : A_AC3
Duration : 1h 20mn
Bit rate mode : Constant
Bit rate : 448 Kbps
Channel(s) : 2 channels
Channel positions : Front: L R
Sampling rate : 48.0 KHz
Bit depth : 16 bits
Compression mode : Lossy
Stream size : 258 MiB (6%)
Title : Многоголосый закадровый - R5 (edit by Ash61)
Language : Russian
Default : Yes
Forced : No
Audio #2
ID : 3
Format : AC-3
Format/Info : Audio Coding 3
Mode extension : CM (complete main)
Format settings, Endianness : Big
Codec ID : A_AC3
Duration : 1h 20mn
Bit rate mode : Constant
Bit rate : 640 Kbps
Channel(s) : 6 channels
Channel positions : Front: L C R, Side: L R, LFE
Sampling rate : 48.0 KHz
Bit depth : 16 bits
Compression mode : Lossy
Stream size : 369 MiB (8%)
Language : English
Default : No
Forced : No

Скриншоты

Для оценки 3д - Анимированные скрины









Благодарности релизеру (15)

Торрент:

Статус:

Размер:

Зарегистрирован   [ 2013-07-11 18:54 ]

© закрыто правообладателем

4.29 GB

 
 Мнение о фильме (9)





Мультфильм довольно забавный, сделан красочно, 3D небольшое, но приятное. Посмотреть можно!
 

так себе.детям не очень понравился
 

Нормально.смотрительно.Дети довольны
 

Спасибо! мультик - не очень, напоминает "Цирк, цирк, цирк"
 

Спасибо! мультик - не очень, напоминает "Цирк, цирк, цирк
поддерживаю!!!!!!!!!!!!!!!!!!!!!!!!!!!!!!!!!!!!!!!!!!!!!!!!!!!!!!!!!!!!
 

Этот мультик я не оставлю у себя в коллекции.
 
Владимир-4121 Профиль 04-Авг-2013 21:20

нормальный мультик.но 3D почти нет
 

Поддержу. Кажется авторы особо не заморачивались с персонажами, пригласив героев из "Цирк, ..." в очередную серию ситкома. Ждем новых выпусков. 3d не очень.
 

Отстой