Торренты   
 
 

 

G.I. Joe: Бросок кобры 2 / G.I. Joe: Retaliation (Джон М. Чу) [2013 г., Half OverUnder]

Рейтинг 3D:
229 голосов
7.3
Рейтинг фильма:
229 голосов
6.8
 
Вы должны быть авторизированы,
чтобы ставить оценки


G.I. Joe: Бросок кобры 2 / G.I. Joe: Retaliation
Год выпуска: 2013
Страна: США
Жанр: фантастика, боевик, триллер, приключения
Продолжительность: 01:50:12
Перевод: Профессиональный (полное дублирование) + Оригинал
Субтитры: English, Russian, Ukrainian
Режиссер: Джон М. Чу
В ролях: В ролях:Дуэйн Джонсон, Эдрианн Палики, Брюс Уиллис, Рэй Парк, Ли Бён Хон, Д.Дж. Котрона, Джонатан Прайс, Элоди Юнг, Ченнинг Татум, Люк Брейси,
Роли озвучивали: Юрий Деркач, Ирина Киреева, Владимир Герасимов, Александр Гаврилин, Дмитрий Поляновский,
Описание: Во второй части отряд «G.I. Joe» вновь объявит вызов группировке «Кобра» и вступит в противостояние с правительством...


Формат 3D: Half OverUnder / Вертикальная анаморфная стереопара
Порядок ракурсов: левый ракурс первый
Видео: Качество: BDRip 1080p
Формат: MKV
Видео кодек: H.264
Аудио кодек: AC3
Видео: 1920x1080; (16:9) 23.976 fps; 10,4 Mbps (0.208 bit/pixel)
Аудио#1: Русский / AC3 / 48 KHz / 5.1 ch / 448 Kbps
Аудио#2: Английский / AC3 / 48 KHz / 5.1 ch / 640 Kbps

Скриншоты




Media Info

Общее
Уникальный идентификатор : 248048671974540473805135271135108112139 (0xBA9C6FBE9A716AF8BCA0193F338F9F0B)
Полное имя : D:\DVD\G.I.Joe.Retaliation.2013.3D.1080p.Bluray.HOU.X264.mkv
Формат : Matroska
Версия формата : Version 4 / Version 2
Размер файла : 9,00 Гбайт
Продолжительность : 1 ч. 50 м.
Общий поток : 11,7 Мбит/сек
Название фильма : G.I. Joe: Бросок кобры 2 / G.I. Joe: Retaliation Half-OU
Дата кодирования : UTC 2013-07-17 13:39:26
Программа кодирования : mkvmerge v6.2.0 ('Promised Land') built on Apr 28 2013 12:22:01
Библиотека кодирования : libebml v1.3.0 + libmatroska v1.4.0
Видео
Идентификатор : 1
Формат : AVC
Формат/Информация : Advanced Video Codec
Профиль формата : High@L4.1
MultiView_Count : 2
MultiView_Layout : Top-Bottom (left eye first)
Параметр CABAC формата : Да
Параметр ReFrames формата : 4 кадра
Идентификатор кодека : V_MPEG4/ISO/AVC
Продолжительность : 1 ч. 50 м.
Битрейт : 10,4 Мбит/сек
Ширина : 1920 пикселей
Высота : 1080 пикселей
Соотношение сторон : 16:9
Режим частоты кадров : Постоянный
Частота кадров : 23,976 кадра/сек
Цветовое пространство : YUV
Субдискретизация насыщенности : 4:2:0
Битовая глубина : 8 бит
Тип развёртки : Прогрессивная
Бит/(Пиксели*Кадры) : 0.208
Размер потока : 7,98 Гбайт (89%)
Заголовок : G.I.Joe.Retaliation.2013.3D.1080p.Bluray.HOU.X264
Библиотека кодирования : x264 core 135 r2345 f0c1c53
Настройки программы : cabac=1 / ref=4 / deblock=1:-3:-3 / analyse=0x3:0x113 / me=umh / subme=10 / psy=1 / psy_rd=1.00:0.15 / mixed_ref=1 / me_range=32 / chroma_me=1 / trellis=2 / 8x8dct=1 / cqm=0 / deadzone=21,11 / fast_pskip=1 / chroma_qp_offset=-3 / threads=36 / lookahead_threads=3 / sliced_threads=0 / nr=0 / decimate=1 / interlaced=0 / bluray_compat=0 / constrained_intra=0 / bframes=6 / b_pyramid=2 / b_adapt=1 / b_bias=0 / direct=3 / weightb=1 / open_gop=0 / weightp=2 / keyint=250 / keyint_min=23 / scenecut=40 / intra_refresh=0 / rc_lookahead=40 / rc=crf / mbtree=1 / crf=18.0 / qcomp=0.60 / qpmin=10 / qpmax=69 / qpstep=4 / vbv_maxrate=40000 / vbv_bufsize=30000 / crf_max=0.0 / nal_hrd=none / ip_ratio=1.40 / aq=1:1.00
Default : Да
Forced : Нет
Аудио #1
Идентификатор : 2
Формат : AC-3
Формат/Информация : Audio Coding 3
Расширение режима : CM (complete main)
Параметр Endianness формата : Big
Идентификатор кодека : A_AC3
Продолжительность : 1 ч. 50 м.
Вид битрейта : Постоянный
Битрейт : 448 Кбит/сек
Каналы : 6 каналов
Расположение каналов : Front: L C R, Side: L R, LFE
Частота : 48,0 КГц
Битовая глубина : 16 бит
Метод сжатия : С потерями
Размер потока : 353 Мбайт (4%)
Заголовок : BD CEE
Язык : Russian
Default : Нет
Forced : Да
Аудио #2
Идентификатор : 3
Формат : AC-3
Формат/Информация : Audio Coding 3
Расширение режима : CM (complete main)
Параметр Endianness формата : Big
Идентификатор кодека : A_AC3
Продолжительность : 1 ч. 50 м.
Вид битрейта : Постоянный
Битрейт : 640 Кбит/сек
Каналы : 6 каналов
Расположение каналов : Front: L C R, Side: L R, LFE
Частота : 48,0 КГц
Битовая глубина : 16 бит
Метод сжатия : С потерями
Размер потока : 505 Мбайт (5%)
Язык : English
Default : Да
Forced : Нет
Текст #1
Идентификатор : 4
Формат : UTF-8
Идентификатор кодека : S_TEXT/UTF8
Идентификатор кодека/Информация : UTF-8 Plain Text
Язык : English
Default : Да
Forced : Нет
Текст #2
Идентификатор : 5
Формат : UTF-8
Идентификатор кодека : S_TEXT/UTF8
Идентификатор кодека/Информация : UTF-8 Plain Text
Язык : Russian
Default : Нет
Forced : Нет
Текст #3
Идентификатор : 6
Формат : UTF-8
Идентификатор кодека : S_TEXT/UTF8
Идентификатор кодека/Информация : UTF-8 Plain Text
Язык : Ukrainian
Default : Нет
Forced : Нет
Меню
00:00:00.000 : en:00:00:00.000
00:06:08.243 : en:00:06:08.243
00:12:52.313 : en:00:12:52.313
00:17:35.471 : en:00:17:35.471
00:25:37.369 : en:00:25:37.369
00:30:56.188 : en:00:30:56.188
00:39:00.880 : en:00:39:00.880
00:42:40.975 : en:00:42:40.975
00:48:31.242 : en:00:48:31.242
00:54:02.990 : en:00:54:02.990
01:01:46.536 : en:01:01:46.536
01:07:34.676 : en:01:07:34.676
01:13:56.807 : en:01:13:56.807
01:17:54.461 : en:01:17:54.461
01:23:45.979 : en:01:23:45.979
01:31:12.759 : en:01:31:12.759
01:41:13.359 : en:01:41:13.359
Остальные раздачи этого фильма (4)
Благодарности релизеру (40)

Торрент:

Статус:

Размер:

Зарегистрирован   [ 2013-07-17 20:53 ]

проверено

9 GB

 
 Мнение о фильме (77)

1, 2, 3, 4  След.






До конца досмотреть не хватило сил...Бре-е-е-ед!!!!
 

3 д норма!Фильм для любителей фаетастичесуих боевиков!!!Удачного просмоотра!:)
 

Даже несмотря на то, что 3d - конверсия !
 

Фильм намного хуже первой части - почти заурядный боевик, испортили франшизу. 3D есть, даже очень заметное, и вылеты есть немного - но все как-то не очень естественное, особенно бросаются в глаза нарочито выдвинутые объекты переднего плана. Сравните качество конвертации этого фильма и "Парка Юрского периода" - мне кажется, разница заметна.
 

это не конверт! но лучше подождать от другого релизера
 

Это - конвертация. Если кому-то интересно, вот ссыла: хттп://realorfake3d.com/
 

конверт?
 

Да, это студийная конвертация!
 

Ну а что Вы хотели, фильм то снимали в обычном формате.... потом уже доделали до 3D
 

Наивная стрелялка и спасение мира в последнюю секунду - ничего нового. 3D более -менее на переднем плане , задний план размазан. Качество картинки из -за зернистости убогое. Неужели такое качество и в кино-рах за деньги крутят или это копия неудачная.
 

цыигвиив, такой исходник, другого нет...
 

Смотрел в кинотеатре. Добротный фантастический боевичек, хуже первой части, но вполне на уровне.
 

Разочарован, могло быть значительно лучше!!!
 

Барахло
 

Смотрел через проектор на 5 м экране без полос. 3Д тут нормальное, присутствуют всеми любимые вылеты. Заметно что конверт, но все же неплохо
 

норм кинчик. но на раз.
 
Вячеслав Старчевский Профиль 23-Июл-2013 20:33

Первая часть была ещё куда не шло.... Тут же бред полный. Досмотрел от нечего делать.
 

Раз 5 наверное начинал смотреть и бросал. Но все же досмотрел. По сравнению с первой частью - полная фигня. Не вытятнули фильм не молодой лысый не старый лысый.
 

Фильм на раз, 3д сносное.
 

Спасибо большое за фильм!!!
 

Страница 1 из 4

1, 2, 3, 4  След.