Торренты   
 
 

 

Цирк дю Солей: Сказочный мир в 3Д / Cirque du Soleil: Worlds Away 3D [2012 г., Anamorph OverUnder]

Рейтинг 3D:
50 голосов
7.6
Рейтинг фильма:
49 голосов
7.1
 
Вы должны быть авторизированы,
чтобы ставить оценки


Цирк дю Солей: Сказочный мир в 3Д / Cirque du Soleil: Worlds Away 3D
Год выпуска: 2012
Страна: США (Paramaunt Pictures, Cirque du Soleil Burlesco, Reel FX Creative Studios, Strange Weather Films)
Жанр: Фэнтези, Мюзикл, Цирк
Продолжительность: 01:31:12
Описание: Удивительная история двух влюбленных, которых разлучила судьба, по мотивам лучших шоу Cirque du Soleil. Им придется пройти через многое, чтобы снова быть вместе…
Формат 3D: Anamorph OverUnder
Видео: MPEG4 AVC, 13,2 Mбит/с, 1920x1080, 23.976 кадр/с
Аудио 1: Русский (Дубляж) / AC3 / 48 KHz / 5.1 ch / 448 Кбит/сек
Аудио 2: Английский (Оригинал) / AC3 / 48 KHz / 5.1 ch / 640 Кбит/сек
Rip by HDMaNiAcS / Master by tnrprog

Скриншоты




Media Info

=== Общие ===
Unique ID : 231170994088957434137638781284625217937 (0xADE9E9FA86942671956EB4ACC404F991)
Полное имя : Cirque.Du.Soleil.Worlds.Away.3D.2012.1080p.Half-OU.tnrprog.mkv
Формат : Matroska
Версия формата : Version 4 / Version 2
Размер файла : 9.09 Гб
Длительность : 1ч 31мин
Общий битрейт : 14.3 Мбит/сек
Дата кодирования : UTC 2013-07-17 09:49:58
Програмное обеспечение : mkvmerge v6.2.0 ('Promised Land') built on Apr 28 2013 12:22:01
Кодирующая библиотека : libebml v1.3.0 + libmatroska v1.4.0
=== Видео ===
ID (Идентификатор) : 1
Формат : AVC
Описание формата : Advanced Video Codec
Профиль формата : High@L4.1
Параметр 'CABAC' : Да
Параметр 'ReFrames' : 4 frames
Идентификатор кодека : V_MPEG4/ISO/AVC
Длительность : 1ч 31мин
Битрейт : 13.2 Мбит/сек
Ширина кадра : 1 920 пикселей
Высота кадра : 1 080 пикселей
Соотношение сторон : 16:9
Частота кадров : 23.976 кадров/сек
Цветовое пространство : YUV
Субдискретизация насыщенности : 4:2:0
Глубина (разрядность) : 8 bits
Тип развертки : Прогрессивная
Бит/(пиксель*кадр) : 0.266
Размер потока : 8.22 Гб (90%)
Название : Rip HDMaNiAcS / Master by tnrprog
Кодирующая библиотека : x264 core 129 r2245 bc13772
Параметры кодирования : cabac=1 / ref=4 / deblock=1:-3:-3 / analyse=0x3:0x113 / me=tesa / subme=11 / psy=1 / psy_rd=1.00:0.05 / mixed_ref=1 / me_range=32 / chroma_me=1 / trellis=2 / 8x8dct=1 / cqm=0 / deadzone=21,11 / fast_pskip=0 / chroma_qp_offset=-3 / threads=12 / lookahead_threads=2 / sliced_threads=0 / nr=0 / decimate=0 / interlaced=0 / bluray_compat=0 / constrained_intra=0 / bframes=7 / b_pyramid=2 / b_adapt=2 / b_bias=0 / direct=3 / weightb=1 / open_gop=0 / weightp=2 / keyint=250 / keyint_min=23 / scenecut=40 / intra_refresh=0 / rc_lookahead=40 / rc=2pass / mbtree=0 / bitrate=13200 / ratetol=1.0 / qcomp=0.60 / qpmin=10 / qpmax=69 / qpstep=4 / cplxblur=20.0 / qblur=0.5 / vbv_maxrate=40000 / vbv_bufsize=30000 / nal_hrd=none / ip_ratio=1.40 / pb_ratio=1.30 / aq=1:0.80
Язык : English
Default : Да
Forced : Нет
=== Аудио 1 ===
ID (Идентификатор) : 2
Формат : AC-3
Описание формата : Audio Coding 3
Mode extension : CM (complete main)
Идентификатор кодека : A_AC3
Длительность : 1ч 31мин
Тип битрейта : Постоянный
Битрейт : 448 кбит/сек
Канал(ы) : 6 каналов
Расположение каналов : Front: L C R, Side: L R, LFE
Частота дискретизации : 48.0 кГц
Глубина (разрядность) : 16 bits
Режим сжатия : С потерями
Размер потока : 292 Мб (3%)
Название : RUS DUB
Язык : Russian
Default : Да
Forced : Да
=== Аудио 2 ===
ID (Идентификатор) : 3
Формат : AC-3
Описание формата : Audio Coding 3
Mode extension : CM (complete main)
Идентификатор кодека : A_AC3
Длительность : 1ч 31мин
Тип битрейта : Постоянный
Битрейт : 640 кбит/сек
Канал(ы) : 6 каналов
Расположение каналов : Front: L C R, Side: L R, LFE
Частота дискретизации : 48.0 кГц
Глубина (разрядность) : 16 bits
Режим сжатия : С потерями
Размер потока : 418 Мб (4%)
Название : ENG ORIGINAL
Язык : English
Default : Нет
Forced : Нет
Остальные раздачи этого фильма (3)
Благодарности релизеру (47)

Торрент:

Статус:

Размер:

Зарегистрирован   [ 2013-07-18 20:39 ]

проверено

9.09 GB

 
 Мнение о фильме (22)

1, 2  След.






5shadow2, на любителя, меня не особо впечатлил, а жена в восторге была, в кино смотрели
 

Отличный отдыхающий фильм, смотрел в кино, наконец-то дождался на этом сайте, для добавления в свою коллекцию.
 

Жена и дочка оч.любят цирк,так что качаю однозначно!На руторе лежит в 2д-отзывы более чем положительные!За релиз отдельное спасибо!
 

Я не фанат подобного жанра, но посмотрел с удовольствием. 3D очень даже к месту.
 

Спасибо,мне это зрелище понравилось,как в сказке!
 

Спасибо релизёру!Хотел посмотреть всемирно известный цирк.Посмотрел.Особого восторга не было.Шоу красивое,цирк- так себе.3D понравилось.
 

Двоякое впечатление, сначала вроде интересно, а со второй половины можно уснуть) 3D хорошего качества
 

Цирк впечатляющий. Смотрится красиво, но влюбленная сюжетная линия просматривается трудновато.
 

очень понравилось спасибо
 

Дю Солей - мерзкое зрелище.
 

webwalk, а мерзкое в чем уважаемый?
 

Я люблю цирк!
 

Постановки этого цирка семье очень нравятся. 3D хорошее. Спасибо !
 

очень хороший цирковой спектакль. наслаждался. 3д без вылетов , но в тему
 

фильм классный, посмотрели семьей с удовольствием. 3 д без вылетов но в хорошем объеме. спасибо большое.
 

Прекрасное 3D, красивая картинка. Правда на 2 часа меня не хватило, красота усыпляет
 

Мне понравился.
 

прикольно, но для фанатов....(не люблю цирк)
 

На любителя.
 

огромное спс просто отпад супер
 

Страница 1 из 2

1, 2  След.